  0
SECTION
  2
HEADER
  9
$ACADVER
  1
AC1015
  9
$ACADMAINTVER
 70
     6
  9
$DWGCODEPAGE
  3
ANSI_1252
  9
$INSBASE
 10
0.0
 20
0.0
 30
0.0
  9
$EXTMIN
 10
56.12826987438495
 20
-145.873227375454
 30
0.0
  9
$EXTMAX
 10
204.628269874385
 20
-40.87322737545395
 30
0.0
  9
$LIMMIN
 10
0.0
 20
0.0
  9
$LIMMAX
 10
12.0
 20
9.0
  9
$ORTHOMODE
 70
     0
  9
$REGENMODE
 70
     1
  9
$FILLMODE
 70
     1
  9
$QTEXTMODE
 70
     0
  9
$MIRRTEXT
 70
     1
  9
$LTSCALE
 40
1.0
  9
$ATTMODE
 70
     1
  9
$TEXTSIZE
 40
0.2
  9
$TRACEWID
 40
0.05
  9
$TEXTSTYLE
  7
Standard
  9
$CLAYER
  8
0
  9
$CELTYPE
  6
ByLayer
  9
$CECOLOR
 62
   256
  9
$CELTSCALE
 40
1.0
  9
$DISPSILH
 70
     0
  9
$DIMSCALE
 40
1.0
  9
$DIMASZ
 40
0.18
  9
$DIMEXO
 40
0.0625
  9
$DIMDLI
 40
0.38
  9
$DIMRND
 40
0.0
  9
$DIMDLE
 40
0.0
  9
$DIMEXE
 40
0.18
  9
$DIMTP
 40
0.0
  9
$DIMTM
 40
0.0
  9
$DIMTXT
 40
0.18
  9
$DIMCEN
 40
0.09
  9
$DIMTSZ
 40
0.0
  9
$DIMTOL
 70
     0
  9
$DIMLIM
 70
     0
  9
$DIMTIH
 70
     1
  9
$DIMTOH
 70
     1
  9
$DIMSE1
 70
     0
  9
$DIMSE2
 70
     0
  9
$DIMTAD
 70
     0
  9
$DIMZIN
 70
     0
  9
$DIMBLK
  1

  9
$DIMASO
 70
     1
  9
$DIMSHO
 70
     1
  9
$DIMPOST
  1

  9
$DIMAPOST
  1

  9
$DIMALT
 70
     0
  9
$DIMALTD
 70
     2
  9
$DIMALTF
 40
25.4
  9
$DIMLFAC
 40
1.0
  9
$DIMTOFL
 70
     0
  9
$DIMTVP
 40
0.0
  9
$DIMTIX
 70
     0
  9
$DIMSOXD
 70
     0
  9
$DIMSAH
 70
     0
  9
$DIMBLK1
  1

  9
$DIMBLK2
  1

  9
$DIMSTYLE
  2
Standard
  9
$DIMCLRD
 70
     0
  9
$DIMCLRE
 70
     0
  9
$DIMCLRT
 70
     0
  9
$DIMTFAC
 40
1.0
  9
$DIMGAP
 40
0.09
  9
$DIMJUST
 70
     0
  9
$DIMSD1
 70
     0
  9
$DIMSD2
 70
     0
  9
$DIMTOLJ
 70
     1
  9
$DIMTZIN
 70
     0
  9
$DIMALTZ
 70
     0
  9
$DIMALTTZ
 70
     0
  9
$DIMUPT
 70
     0
  9
$DIMDEC
 70
     4
  9
$DIMTDEC
 70
     4
  9
$DIMALTU
 70
     2
  9
$DIMALTTD
 70
     2
  9
$DIMTXSTY
  7
Standard
  9
$DIMAUNIT
 70
     0
  9
$DIMADEC
 70
     0
  9
$DIMALTRND
 40
0.0
  9
$DIMAZIN
 70
     0
  9
$DIMDSEP
 70
    46
  9
$DIMATFIT
 70
     3
  9
$DIMFRAC
 70
     0
  9
$DIMLDRBLK
  1

  9
$DIMLUNIT
 70
     2
  9
$DIMLWD
 70
    -2
  9
$DIMLWE
 70
    -2
  9
$DIMTMOVE
 70
     0
  9
$LUNITS
 70
     2
  9
$LUPREC
 70
     4
  9
$SKETCHINC
 40
0.1
  9
$FILLETRAD
 40
0.5
  9
$AUNITS
 70
     0
  9
$AUPREC
 70
     0
  9
$MENU
  1
.
  9
$ELEVATION
 40
0.0
  9
$PELEVATION
 40
0.0
  9
$THICKNESS
 40
0.0
  9
$LIMCHECK
 70
     0
  9
$CHAMFERA
 40
0.5
  9
$CHAMFERB
 40
0.5
  9
$CHAMFERC
 40
1.0
  9
$CHAMFERD
 40
0.0
  9
$SKPOLY
 70
     0
  9
$TDCREATE
 40
2456997.488065602
  9
$TDUCREATE
 40
2456997.446398935
  9
$TDUPDATE
 40
2456997.488065787
  9
$TDUUPDATE
 40
2456997.44639912
  9
$TDINDWG
 40
0.0000000116
  9
$TDUSRTIMER
 40
0.0000000116
  9
$USRTIMER
 70
     1
  9
$ANGBASE
 50
0.0
  9
$ANGDIR
 70
     0
  9
$PDMODE
 70
     0
  9
$PDSIZE
 40
0.0
  9
$PLINEWID
 40
0.0
  9
$SPLFRAME
 70
     0
  9
$SPLINETYPE
 70
     6
  9
$SPLINESEGS
 70
     8
  9
$HANDSEED
  5
1C7
  9
$SURFTAB1
 70
     6
  9
$SURFTAB2
 70
     6
  9
$SURFTYPE
 70
     6
  9
$SURFU
 70
     6
  9
$SURFV
 70
     6
  9
$UCSBASE
  2

  9
$UCSNAME
  2

  9
$UCSORG
 10
0.0
 20
0.0
 30
0.0
  9
$UCSXDIR
 10
1.0
 20
0.0
 30
0.0
  9
$UCSYDIR
 10
0.0
 20
1.0
 30
0.0
  9
$UCSORTHOREF
  2

  9
$UCSORTHOVIEW
 70
     0
  9
$UCSORGTOP
 10
0.0
 20
0.0
 30
0.0
  9
$UCSORGBOTTOM
 10
0.0
 20
0.0
 30
0.0
  9
$UCSORGLEFT
 10
0.0
 20
0.0
 30
0.0
  9
$UCSORGRIGHT
 10
0.0
 20
0.0
 30
0.0
  9
$UCSORGFRONT
 10
0.0
 20
0.0
 30
0.0
  9
$UCSORGBACK
 10
0.0
 20
0.0
 30
0.0
  9
$PUCSBASE
  2

  9
$PUCSNAME
  2

  9
$PUCSORG
 10
0.0
 20
0.0
 30
0.0
  9
$PUCSXDIR
 10
1.0
 20
0.0
 30
0.0
  9
$PUCSYDIR
 10
0.0
 20
1.0
 30
0.0
  9
$PUCSORTHOREF
  2

  9
$PUCSORTHOVIEW
 70
     0
  9
$PUCSORGTOP
 10
0.0
 20
0.0
 30
0.0
  9
$PUCSORGBOTTOM
 10
0.0
 20
0.0
 30
0.0
  9
$PUCSORGLEFT
 10
0.0
 20
0.0
 30
0.0
  9
$PUCSORGRIGHT
 10
0.0
 20
0.0
 30
0.0
  9
$PUCSORGFRONT
 10
0.0
 20
0.0
 30
0.0
  9
$PUCSORGBACK
 10
0.0
 20
0.0
 30
0.0
  9
$USERI1
 70
     0
  9
$USERI2
 70
     0
  9
$USERI3
 70
     0
  9
$USERI4
 70
     0
  9
$USERI5
 70
     0
  9
$USERR1
 40
18.1
  9
$USERR2
 40
0.0
  9
$USERR3
 40
0.0
  9
$USERR4
 40
0.0
  9
$USERR5
 40
0.0
  9
$WORLDVIEW
 70
     1
  9
$SHADEDGE
 70
     3
  9
$SHADEDIF
 70
    70
  9
$TILEMODE
 70
     1
  9
$MAXACTVP
 70
    64
  9
$PINSBASE
 10
0.0
 20
0.0
 30
0.0
  9
$PLIMCHECK
 70
     0
  9
$PEXTMIN
 10
1.00000000000000E+20
 20
1.00000000000000E+20
 30
1.00000000000000E+20
  9
$PEXTMAX
 10
-1.00000000000000E+20
 20
-1.00000000000000E+20
 30
-1.00000000000000E+20
  9
$PLIMMIN
 10
0.0
 20
0.0
  9
$PLIMMAX
 10
12.0
 20
9.0
  9
$UNITMODE
 70
     0
  9
$VISRETAIN
 70
     1
  9
$PLINEGEN
 70
     0
  9
$PSLTSCALE
 70
     1
  9
$TREEDEPTH
 70
  3020
  9
$CMLSTYLE
  2
Standard
  9
$CMLJUST
 70
     0
  9
$CMLSCALE
 40
1.0
  9
$PROXYGRAPHICS
 70
     1
  9
$MEASUREMENT
 70
     1
  9
$CELWEIGHT
370
    -1
  9
$ENDCAPS
280
     0
  9
$JOINSTYLE
280
     0
  9
$LWDISPLAY
290
     0
  9
$INSUNITS
 70
     4
  9
$HYPERLINKBASE
  1

  9
$STYLESHEET
  1

  9
$XEDIT
290
     1
  9
$CEPSNTYPE
380
     0
  9
$PSTYLEMODE
290
     1
  9
$FINGERPRINTGUID
  2
{0D82F291-9531-438D-92D4-AEC51DBB11D7}
  9
$VERSIONGUID
  2
{FAEB1C32-E019-11D5-929B-00C0DF256EC4}
  9
$EXTNAMES
290
     1
  9
$PSVPSCALE
 40
0.0
  9
$OLESTARTUP
290
     0
  0
ENDSEC
  0
SECTION
  2
CLASSES
  0
CLASS
  1
ACDBDICTIONARYWDFLT
  2
AcDbDictionaryWithDefault
  3
ObjectDBX Classes
 90
        0
280
     0
281
     0
  0
CLASS
  1
VISUALSTYLE
  2
AcDbVisualStyle
  3
ObjectDBX Classes
 90
     4095
280
     0
281
     0
  0
CLASS
  1
MATERIAL
  2
AcDbMaterial
  3
ObjectDBX Classes
 90
     1153
280
     0
281
     0
  0
CLASS
  1
DICTIONARYVAR
  2
AcDbDictionaryVar
  3
ObjectDBX Classes
 90
        0
280
     0
281
     0
  0
CLASS
  1
ACDBPLACEHOLDER
  2
AcDbPlaceHolder
  3
ObjectDBX Classes
 90
        0
280
     0
281
     0
  0
CLASS
  1
LAYOUT
  2
AcDbLayout
  3
ObjectDBX Classes
 90
        0
280
     0
281
     0
  0
ENDSEC
  0
SECTION
  2
TABLES
  0
TABLE
  2
VPORT
  5
8
330
0
100
AcDbSymbolTable
 70
     1
  0
VPORT
  5
29
330
8
100
AcDbSymbolTableRecord
100
AcDbViewportTableRecord
  2
*Active
 70
     0
 10
0.0
 20
0.0
 11
1.0
 21
1.0
 12
130.378269874385
 22
-93.37322737545398
 13
0.0
 23
0.0
 14
0.5
 24
0.5
 15
0.5
 25
0.5
 16
0.0
 26
0.0
 36
1.0
 17
0.0
 27
0.0
 37
0.0
 40
115.5000000000001
 41
1.60267857142857
 42
50.0
 43
0.0
 44
0.0
 50
0.0
 51
0.0
 71
     0
 72
   100
 73
     1
 74
     3
 75
     0
 76
     0
 77
     0
 78
     0
281
     0
 65
     1
110
0.0
120
0.0
130
0.0
111
1.0
121
0.0
131
0.0
112
0.0
122
1.0
132
0.0
 79
     0
146
0.0
  0
ENDTAB
  0
TABLE
  2
LTYPE
  5
5
330
0
100
AcDbSymbolTable
 70
     8
  0
LTYPE
  5
14
330
5
100
AcDbSymbolTableRecord
100
AcDbLinetypeTableRecord
  2
ByBlock
 70
     0
  3

 72
    65
 73
     0
 40
0.0
  0
LTYPE
  5
15
330
5
100
AcDbSymbolTableRecord
100
AcDbLinetypeTableRecord
  2
ByLayer
 70
     0
  3

 72
    65
 73
     0
 40
0.0
  0
LTYPE
  5
16
330
5
100
AcDbSymbolTableRecord
100
AcDbLinetypeTableRecord
  2
Continuous
 70
     0
  3
Solid line
 72
    65
 73
     0
 40
0.0
  0
LTYPE
  5
3F
330
5
100
AcDbSymbolTableRecord
100
AcDbLinetypeTableRecord
  2
DASHED
 70
     0
  3
Dashed
 72
    65
 73
     2
 40
15.0
 49
7.0
 74
     0
 49
-8.0
 74
     0
  0
LTYPE
  5
40
330
5
100
AcDbSymbolTableRecord
100
AcDbLinetypeTableRecord
  2
DOTTED
 70
     0
  3
Dotted
 72
    65
 73
     2
 40
1.0
 49
0.0
 74
     0
 49
-1.0
 74
     0
  0
LTYPE
  5
41
330
5
100
AcDbSymbolTableRecord
100
AcDbLinetypeTableRecord
  2
DOT_CENTER
 70
     0
  3
Dot_Center
 72
    65
 73
     4
 40
14.0
 49
12.0
 74
     0
 49
-1.0
 74
     0
 49
0.0
 74
     0
 49
-1.0
 74
     0
  0
LTYPE
  5
42
330
5
100
AcDbSymbolTableRecord
100
AcDbLinetypeTableRecord
  2
LONG_DASHED
 70
     0
  3
Long_Dashed
 72
    65
 73
     2
 40
15.0
 49
10.0
 74
     0
 49
-5.0
 74
     0
  0
LTYPE
  5
43
330
5
100
AcDbSymbolTableRecord
100
AcDbLinetypeTableRecord
  2
DASH_CENTER
 70
     0
  3
Dash_Center
 72
    65
 73
     4
 40
14.0
 49
11.0
 74
     0
 49
-1.0
 74
     0
 49
1.0
 74
     0
 49
-1.0
 74
     0
  0
LTYPE
  5
44
330
5
100
AcDbSymbolTableRecord
100
AcDbLinetypeTableRecord
  2
PHANTOM
 70
     0
  3
Phantom
 72
    65
 73
     6
 40
13.0
 49
10.0
 74
     0
 49
-1.0
 74
     0
 49
0.0
 74
     0
 49
-1.0
 74
     0
 49
0.0
 74
     0
 49
-1.0
 74
     0
  0
LTYPE
  5
45
330
5
100
AcDbSymbolTableRecord
100
AcDbLinetypeTableRecord
  2
CENTER_DASH_DASH
 70
     0
  3
Center_Dash_Dash
 72
    65
 73
     6
 40
14.0
 49
9.0
 74
     0
 49
-1.0
 74
     0
 49
1.0
 74
     0
 49
-1.0
 74
     0
 49
1.0
 74
     0
 49
-1.0
 74
     0
  0
ENDTAB
  0
TABLE
  2
LAYER
  5
2
330
0
100
AcDbSymbolTable
 70
     2
  0
LAYER
  5
10
330
2
100
AcDbSymbolTableRecord
100
AcDbLayerTableRecord
  2
0
 70
     0
 62
     7
  6
Continuous
370
    -3
390
F
  0
LAYER
  5
46
330
2
100
AcDbSymbolTableRecord
100
AcDbLayerTableRecord
  2
1
 70
     0
 62
     7
  6
Continuous
370
    -3
390
F
  0
ENDTAB
  0
TABLE
  2
STYLE
  5
3
330
0
100
AcDbSymbolTable
 70
     3
  0
STYLE
  5
11
330
3
100
AcDbSymbolTableRecord
100
AcDbTextStyleTableRecord
  2
Standard
 70
     0
 40
0.0
 41
1.0
 50
0.0
 71
     0
 42
0.2
  3
txt
  4

  0
STYLE
  5
9A
330
3
100
AcDbSymbolTableRecord
100
AcDbTextStyleTableRecord
  2
CONVERTER_11
 70
     0
 40
0.0
 41
1.2
 50
0.0
 71
     0
 42
0.2
  3
ARIAL.TTF
  4

  0
STYLE
  5
12D
330
3
100
AcDbSymbolTableRecord
100
AcDbTextStyleTableRecord
  2
CONVERTER_12
 70
     0
 40
0.0
 41
0.95
 50
0.0
 71
     0
 42
0.2
  3
simplex.shx
  4

  0
ENDTAB
  0
TABLE
  2
VIEW
  5
6
330
0
100
AcDbSymbolTable
 70
     0
  0
ENDTAB
  0
TABLE
  2
UCS
  5
7
330
0
100
AcDbSymbolTable
 70
     0
  0
ENDTAB
  0
TABLE
  2
APPID
  5
9
330
0
100
AcDbSymbolTable
 70
     1
  0
APPID
  5
12
330
9
100
AcDbSymbolTableRecord
100
AcDbRegAppTableRecord
  2
ACAD
 70
     0
  0
ENDTAB
  0
TABLE
  2
DIMSTYLE
  5
A
330
0
100
AcDbSymbolTable
 70
     9
100
AcDbDimStyleTable
  0
DIMSTYLE
105
27
330
A
100
AcDbSymbolTableRecord
100
AcDbDimStyleTableRecord
  2
Standard
 70
     0
178
     0
340
11
  0
DIMSTYLE
105
131
102
{ACAD_REACTORS
330
132
102
}
330
A
100
AcDbSymbolTableRecord
100
AcDbDimStyleTableRecord
  2
ME10_DIM_10
 70
     0
 41
1.5
 42
0.25
 44
0.5
 73
     0
 74
     0
 77
     1
 78
     8
140
1.5
147
1.0
172
     1
173
     1
174
     1
175
     1
176
     2
177
     2
271
     2
178
     4
271
     2
340
12D
  0
DIMSTYLE
105
13C
102
{ACAD_REACTORS
330
13D
102
}
330
A
100
AcDbSymbolTableRecord
100
AcDbDimStyleTableRecord
  2
ME10_DIM_11
 70
     0
 41
1.5
 42
0.25
 44
0.5
 73
     0
 74
     0
 77
     1
 78
     8
140
1.5
147
1.0
172
     1
173
     1
174
     1
175
     1
176
     2
177
     2
271
     2
178
     4
271
     2
340
12D
  0
DIMSTYLE
105
147
102
{ACAD_REACTORS
330
148
102
}
330
A
100
AcDbSymbolTableRecord
100
AcDbDimStyleTableRecord
  2
ME10_DIM_12
 70
     0
 41
1.5
 42
0.25
 44
0.5
 73
     0
 74
     0
 77
     1
 78
     8
140
1.5
147
1.0
172
     1
173
     1
174
     1
175
     1
176
     2
177
     2
271
     2
178
     4
271
     2
340
12D
  0
DIMSTYLE
105
152
102
{ACAD_REACTORS
330
153
102
}
330
A
100
AcDbSymbolTableRecord
100
AcDbDimStyleTableRecord
  2
ME10_DIM_13
 70
     0
 41
1.5
 42
0.25
 44
0.5
 77
     1
 78
     8
140
1.5
147
1.0
172
     1
173
     1
174
     1
175
     1
176
     2
177
     2
271
     2
178
     4
271
     2
340
12D
  0
DIMSTYLE
105
15D
102
{ACAD_REACTORS
330
15E
102
}
330
A
100
AcDbSymbolTableRecord
100
AcDbDimStyleTableRecord
  2
ME10_DIM_14
 70
     0
 41
1.5
 42
0.25
 44
0.5
 73
     0
 74
     0
 77
     1
 78
     8
140
1.5
147
1.0
172
     1
173
     1
174
     1
175
     1
176
     2
177
     2
271
     2
178
     4
271
     2
340
12D
  0
DIMSTYLE
105
168
102
{ACAD_REACTORS
330
169
102
}
330
A
100
AcDbSymbolTableRecord
100
AcDbDimStyleTableRecord
  2
ME10_DIM_15
 70
     0
 41
1.5
 42
0.25
 44
0.5
 73
     0
 74
     0
 77
     1
 78
     8
140
1.5
147
1.0
172
     1
173
     1
174
     1
175
     1
176
     2
177
     2
271
     2
178
     4
271
     2
340
12D
  0
DIMSTYLE
105
173
102
{ACAD_REACTORS
330
174
102
}
330
A
100
AcDbSymbolTableRecord
100
AcDbDimStyleTableRecord
  2
ME10_DIM_16
 70
     0
 41
1.5
 42
0.25
 44
0.5
 73
     0
 74
     0
 77
     1
 78
     8
140
1.5
147
1.0
172
     1
173
     1
174
     1
175
     1
176
     2
177
     2
271
     2
178
     4
271
     2
340
12D
  0
DIMSTYLE
105
17F
102
{ACAD_REACTORS
330
180
102
}
330
A
100
AcDbSymbolTableRecord
100
AcDbDimStyleTableRecord
  2
ME10_DIM_17
 70
     0
 41
1.5
 42
0.25
 44
0.5
 77
     1
 78
     8
140
1.5
147
1.0
172
     1
173
     1
174
     1
175
     1
176
     2
177
     2
271
     2
178
     4
271
     2
340
12D
  0
ENDTAB
  0
TABLE
  2
BLOCK_RECORD
  5
1
330
0
100
AcDbSymbolTable
 70
    14
  0
BLOCK_RECORD
  5
1F
330
1
100
AcDbSymbolTableRecord
100
AcDbBlockTableRecord
  2
*Model_Space
340
22
  0
BLOCK_RECORD
  5
1B
330
1
100
AcDbSymbolTableRecord
100
AcDbBlockTableRecord
  2
*Paper_Space
340
1E
  0
BLOCK_RECORD
  5
23
330
1
100
AcDbSymbolTableRecord
100
AcDbBlockTableRecord
  2
*Paper_Space0
340
26
  0
BLOCK_RECORD
  5
47
330
1
100
AcDbSymbolTableRecord
100
AcDbBlockTableRecord
  2
_formato_A4
340
0
102
{BLKREFS
331
4B
102
}
  0
BLOCK_RECORD
  5
4A
330
1
100
AcDbSymbolTableRecord
100
AcDbBlockTableRecord
  2
A4_oriz
340
0
102
{BLKREFS
331
4E
102
}
  0
BLOCK_RECORD
  5
127
330
1
100
AcDbSymbolTableRecord
100
AcDbBlockTableRecord
  2
*D3
340
0
  0
BLOCK_RECORD
  5
133
330
1
100
AcDbSymbolTableRecord
100
AcDbBlockTableRecord
  2
*D4
340
0
  0
BLOCK_RECORD
  5
13E
330
1
100
AcDbSymbolTableRecord
100
AcDbBlockTableRecord
  2
*D5
340
0
  0
BLOCK_RECORD
  5
149
330
1
100
AcDbSymbolTableRecord
100
AcDbBlockTableRecord
  2
*D6
340
0
  0
BLOCK_RECORD
  5
154
330
1
100
AcDbSymbolTableRecord
100
AcDbBlockTableRecord
  2
*D7
340
0
  0
BLOCK_RECORD
  5
15F
330
1
100
AcDbSymbolTableRecord
100
AcDbBlockTableRecord
  2
*D8
340
0
  0
BLOCK_RECORD
  5
16A
330
1
100
AcDbSymbolTableRecord
100
AcDbBlockTableRecord
  2
*D9
340
0
  0
BLOCK_RECORD
  5
175
330
1
100
AcDbSymbolTableRecord
100
AcDbBlockTableRecord
  2
*D10
340
0
  0
BLOCK_RECORD
  5
181
330
1
100
AcDbSymbolTableRecord
100
AcDbBlockTableRecord
  2
*D11
340
0
102
{BLKREFS
331
189
102
}
  0
BLOCK_RECORD
  5
18A
330
1
100
AcDbSymbolTableRecord
100
AcDbBlockTableRecord
  2
*D12
340
0
102
{BLKREFS
331
192
102
}
  0
BLOCK_RECORD
  5
193
330
1
100
AcDbSymbolTableRecord
100
AcDbBlockTableRecord
  2
*D13
340
0
102
{BLKREFS
331
19B
102
}
  0
ENDTAB
  0
ENDSEC
  0
SECTION
  2
BLOCKS
  0
BLOCK
  5
20
330
1F
100
AcDbEntity
  8
0
100
AcDbBlockBegin
  2
*Model_Space
 70
     0
 10
0.0
 20
0.0
 30
0.0
  3
*Model_Space
  1

  0
ENDBLK
  5
21
330
1F
100
AcDbEntity
  8
0
100
AcDbBlockEnd
  0
BLOCK
  5
1C
330
1B
100
AcDbEntity
 67
     1
  8
0
100
AcDbBlockBegin
  2
*Paper_Space
 70
     0
 10
0.0
 20
0.0
 30
0.0
  3
*Paper_Space
  1

  0
ENDBLK
  5
1D
330
1B
100
AcDbEntity
 67
     1
  8
0
100
AcDbBlockEnd
  0
BLOCK
  5
24
330
23
100
AcDbEntity
  8
0
100
AcDbBlockBegin
  2
*Paper_Space0
 70
     0
 10
0.0
 20
0.0
 30
0.0
  3
*Paper_Space0
  1

  0
ENDBLK
  5
25
330
23
100
AcDbEntity
  8
0
100
AcDbBlockEnd
  0
BLOCK
  5
48
330
47
100
AcDbEntity
  8
0
100
AcDbBlockBegin
  2
_formato_A4
 70
     0
 10
409.25653974877
 20
-291.746454750908
 30
0.0
  3
_formato_A4
  1

  0
LINE
  5
4F
330
47
100
AcDbEntity
  8
1
  6
Continuous
 62
     7
100
AcDbLine
 10
360.25653974877
 20
-271.746454750908
 30
0.0
 11
360.25653974877
 21
-286.746454750908
 31
0.0
  0
LINE
  5
50
330
47
100
AcDbEntity
  8
1
  6
Continuous
 62
     7
100
AcDbLine
 10
377.6091411262554
 20
-271.746454750908
 30
0.0
 11
377.6091411262554
 21
-286.746454750908
 31
0.0
  0
LINE
  5
51
330
47
100
AcDbEntity
  8
1
  6
Continuous
 62
     7
100
AcDbLine
 10
250.25653974877
 20
-271.746454750908
 30
0.0
 11
250.25653974877
 21
-286.746454750908
 31
0.0
  0
LINE
  5
52
330
47
100
AcDbEntity
  8
1
  6
Continuous
 62
     7
100
AcDbLine
 10
220.25653974877
 20
-279.246454750908
 30
0.0
 11
250.25653974877
 21
-279.246454750908
 31
0.0
  0
LINE
  5
53
330
47
100
AcDbEntity
  8
1
  6
Continuous
 62
     7
100
AcDbLine
 10
260.7565397487697
 20
-81.7464547509079
 30
0.0
 11
260.7565397487697
 21
-96.7464547509079
 31
0.0
  0
LINE
  5
54
330
47
100
AcDbEntity
  8
1
  6
Continuous
 62
     7
100
AcDbLine
 10
112.2565397487699
 20
-291.746454750908
 30
0.0
 11
409.25653974877
 21
-291.746454750908
 31
0.0
  0
LINE
  5
55
330
47
100
AcDbEntity
  8
1
  6
Continuous
 62
     7
100
AcDbLine
 10
112.2565397487699
 20
-81.7464547509079
 30
0.0
 11
112.2565397487699
 21
-291.746454750908
 31
0.0
  0
LINE
  5
56
330
47
100
AcDbEntity
  8
1
  6
Continuous
 62
     7
100
AcDbLine
 10
409.25653974877
 20
-81.7464547509079
 30
0.0
 11
112.2565397487699
 21
-81.7464547509079
 31
0.0
  0
LINE
  5
57
330
47
100
AcDbEntity
  8
1
  6
Continuous
 62
     7
100
AcDbLine
 10
409.25653974877
 20
-291.746454750908
 30
0.0
 11
409.25653974877
 21
-81.7464547509079
 31
0.0
  0
LINE
  5
58
330
47
100
AcDbEntity
  8
1
  6
Continuous
 62
     7
100
AcDbLine
 10
117.2565397487698
 20
-286.746454750908
 30
0.0
 11
404.25653974877
 21
-286.746454750908
 31
0.0
  0
LINE
  5
59
330
47
100
AcDbEntity
  8
1
  6
Continuous
 62
     7
100
AcDbLine
 10
404.25653974877
 20
-286.746454750908
 30
0.0
 11
404.25653974877
 21
-102.746454750908
 31
0.0
  0
LINE
  5
5A
330
47
100
AcDbEntity
  8
1
  6
Continuous
 62
     7
100
AcDbLine
 10
404.25653974877
 20
-102.746454750908
 30
0.0
 11
117.2565397487698
 21
-102.746454750908
 31
0.0
  0
LINE
  5
5B
102
{ACAD_REACTORS
330
A6
102
}
330
47
100
AcDbEntity
  8
1
  6
Continuous
 62
     7
100
AcDbLine
 10
393.2661737708461
 20
-281.6689549110754
 30
0.0
 11
393.2661737708461
 21
-276.8239545907406
 31
0.0
  0
LINE
  5
5C
102
{ACAD_REACTORS
330
A3
102
}
330
47
100
AcDbEntity
  8
1
  6
Continuous
 62
     7
100
AcDbLine
 10
391.9328404375127
 20
-279.246454750908
 30
0.0
 11
391.9328404375127
 21
-277.5144039433392
 31
0.0
  0
LINE
  5
5D
102
{ACAD_REACTORS
330
A3
102
}
330
47
100
AcDbEntity
  8
1
  6
Continuous
 62
     7
100
AcDbLine
 10
391.9328404375127
 20
-277.5144039433392
 30
0.0
 11
391.0771780048101
 21
-278.996454750908
 31
0.0
  0
LINE
  5
5E
102
{ACAD_REACTORS
330
A3
102
}
330
47
100
AcDbEntity
  8
1
  6
Continuous
 62
     7
100
AcDbLine
 10
390.7885028702152
 20
-278.996454750908
 30
0.0
 11
389.9328404375127
 21
-277.5144039433392
 31
0.0
  0
LINE
  5
5F
102
{ACAD_REACTORS
330
A3
102
}
330
47
100
AcDbEntity
  8
1
  6
Continuous
 62
     7
100
AcDbLine
 10
389.9328404375127
 20
-277.5144039433392
 30
0.0
 11
389.9328404375127
 21
-279.246454750908
 31
0.0
  0
LINE
  5
60
330
47
100
AcDbEntity
  8
1
  6
Continuous
 62
     7
100
AcDbLine
 10
382.5164051623711
 20
-279.1020904865667
 30
0.0
 11
390.9328404375127
 21
-274.246454750908
 31
0.0
  0
LINE
  5
61
330
47
100
AcDbEntity
  8
1
  6
Continuous
 62
     7
100
AcDbLine
 10
390.9328404375127
 20
-274.246454750908
 30
0.0
 11
399.3492757126542
 21
-279.1020904865667
 31
0.0
  0
LINE
  5
62
330
47
100
AcDbEntity
  8
1
  6
Continuous
 62
     7
100
AcDbLine
 10
399.3492757126542
 20
-279.3908190152495
 30
0.0
 11
390.9328404375127
 21
-284.246454750908
 31
0.0
  0
LINE
  5
63
330
47
100
AcDbEntity
  8
1
  6
Continuous
 62
     7
100
AcDbLine
 10
390.9328404375127
 20
-284.246454750908
 30
0.0
 11
382.5164051623711
 21
-279.3908190152495
 31
0.0
  0
LINE
  5
64
102
{ACAD_REACTORS
330
A3
102
}
330
47
100
AcDbEntity
  8
1
  6
Continuous
 62
     7
100
AcDbLine
 10
389.266173770846
 20
-279.246454750908
 30
0.0
 11
389.266173770846
 21
-276.0152374388734
 31
0.0
  0
LINE
  5
65
102
{ACAD_REACTORS
330
A3
102
}
330
47
100
AcDbEntity
  8
1
  6
Continuous
 62
     7
100
AcDbLine
 10
389.7606074544694
 20
-275.8827543326357
 30
0.0
 11
390.9328404375127
 21
-277.9131214175748
 31
0.0
  0
LINE
  5
66
102
{ACAD_REACTORS
330
A3
102
}
330
47
100
AcDbEntity
  8
1
  6
Continuous
 62
     7
100
AcDbLine
 10
389.266173770846
 20
-279.246454750908
 30
0.0
 11
389.266173770846
 21
-280.8988696782751
 31
0.0
  0
LINE
  5
67
102
{ACAD_REACTORS
330
A3
102
}
330
47
100
AcDbEntity
  8
1
  6
Continuous
 62
     7
100
AcDbLine
 10
389.9328404375127
 20
-280.8988696782751
 30
0.0
 11
389.9328404375127
 21
-279.246454750908
 31
0.0
  0
LINE
  5
68
102
{ACAD_REACTORS
330
A3
102
}
330
47
100
AcDbEntity
  8
1
  6
Continuous
 62
     7
100
AcDbLine
 10
391.9328404375127
 20
-279.246454750908
 30
0.0
 11
391.9328404375127
 21
-282.4381856803062
 31
0.0
  0
LINE
  5
69
102
{ACAD_REACTORS
330
A3
102
}
330
47
100
AcDbEntity
  8
1
  6
Continuous
 62
     7
100
AcDbLine
 10
392.5995071041793
 20
-282.4381856803062
 30
0.0
 11
392.5995071041793
 21
-276.0152374388734
 31
0.0
  0
LINE
  5
6A
102
{ACAD_REACTORS
330
A3
102
}
330
47
100
AcDbEntity
  8
1
  6
Continuous
 62
     7
100
AcDbLine
 10
392.105073420556
 20
-275.8827543326357
 30
0.0
 11
390.9328404375127
 21
-277.9131214175748
 31
0.0
  0
LINE
  5
6B
102
{ACAD_REACTORS
330
A4
102
}
330
47
100
AcDbEntity
  8
1
  6
Continuous
 62
     7
100
AcDbLine
 10
387.9328404375127
 20
-281.4764336028754
 30
0.0
 11
387.9328404375127
 21
-276.8239545907406
 31
0.0
  0
LINE
  5
6C
102
{ACAD_REACTORS
330
A4
102
}
330
47
100
AcDbEntity
  8
1
  6
Continuous
 62
     7
100
AcDbLine
 10
388.5995071041793
 20
-276.8239545907406
 30
0.0
 11
388.5995071041793
 21
-281.4764336028753
 31
0.0
  0
LINE
  5
6D
102
{ACAD_REACTORS
330
A4
102
}
330
47
100
AcDbEntity
  8
1
  6
Continuous
 62
     7
100
AcDbLine
 10
388.5995071041793
 20
-281.4764336028753
 30
0.0
 11
390.7660812553426
 21
-282.7263802285464
 31
0.0
  0
LINE
  5
6E
102
{ACAD_REACTORS
330
A4
102
}
330
47
100
AcDbEntity
  8
1
  6
Continuous
 62
     7
100
AcDbLine
 10
390.4329329530161
 20
-283.3038372859122
 30
0.0
 11
388.266358801853
 21
-282.0538906602411
 31
0.0
  0
LINE
  5
6F
102
{ACAD_REACTORS
330
A5
102
}
330
47
100
AcDbEntity
  8
1
  6
Continuous
 62
     7
100
AcDbLine
 10
387.266173770846
 20
-277.5931853599714
 30
0.0
 11
387.266173770846
 21
-280.7072028336447
 31
0.0
  0
LINE
  5
70
102
{ACAD_REACTORS
330
A5
102
}
330
47
100
AcDbEntity
  8
1
  6
Continuous
 62
     7
100
AcDbLine
 10
387.266173770846
 20
-280.7072028336447
 30
0.0
 11
387.266173770846
 21
-280.8997241418448
 31
0.0
  0
LINE
  5
71
102
{ACAD_REACTORS
330
A5
102
}
330
47
100
AcDbEntity
  8
1
  6
Continuous
 62
     7
100
AcDbLine
 10
386.5995071041793
 20
-280.8997241418448
 30
0.0
 11
386.5995071041793
 21
-277.5931853599714
 31
0.0
  0
LINE
  5
72
102
{ACAD_REACTORS
330
A6
102
}
330
47
100
AcDbEntity
  8
1
  6
Continuous
 62
     7
100
AcDbLine
 10
393.7660812553426
 20
-276.5352260620578
 30
0.0
 11
395.0994145886758
 21
-277.3044568312886
 31
0.0
  0
LINE
  5
73
102
{ACAD_REACTORS
330
A6
102
}
330
47
100
AcDbEntity
  8
1
  6
Continuous
 62
     7
100
AcDbLine
 10
394.7662662863495
 20
-277.8819138886543
 30
0.0
 11
393.9328404375127
 21
-277.4010912835561
 31
0.0
  0
LINE
  5
74
102
{ACAD_REACTORS
330
A6
102
}
330
47
100
AcDbEntity
  8
1
  6
Continuous
 62
     7
100
AcDbLine
 10
393.9328404375127
 20
-277.4010912835561
 30
0.0
 11
393.9328404375127
 21
-278.9131214175748
 31
0.0
  0
LINE
  5
75
102
{ACAD_REACTORS
330
A6
102
}
330
47
100
AcDbEntity
  8
1
  6
Continuous
 62
     7
100
AcDbLine
 10
393.9328404375127
 20
-278.9131214175748
 30
0.0
 11
394.9328404375127
 21
-278.9131214175748
 31
0.0
  0
LINE
  5
76
102
{ACAD_REACTORS
330
A6
102
}
330
47
100
AcDbEntity
  8
1
  6
Continuous
 62
     7
100
AcDbLine
 10
394.9328404375127
 20
-279.5797880842414
 30
0.0
 11
393.9328404375127
 21
-279.5797880842414
 31
0.0
  0
LINE
  5
77
102
{ACAD_REACTORS
330
A6
102
}
330
47
100
AcDbEntity
  8
1
  6
Continuous
 62
     7
100
AcDbLine
 10
393.9328404375127
 20
-279.5797880842414
 30
0.0
 11
393.9328404375127
 21
-281.0918182182601
 31
0.0
  0
LINE
  5
78
102
{ACAD_REACTORS
330
A6
102
}
330
47
100
AcDbEntity
  8
1
  6
Continuous
 62
     7
100
AcDbLine
 10
393.9328404375127
 20
-281.0918182182601
 30
0.0
 11
394.7662662863495
 21
-280.6109956131618
 31
0.0
  0
LINE
  5
79
102
{ACAD_REACTORS
330
A6
102
}
330
47
100
AcDbEntity
  8
1
  6
Continuous
 62
     7
100
AcDbLine
 10
395.0994145886758
 20
-281.1884526705277
 30
0.0
 11
393.7660812553426
 21
-281.9576834397583
 31
0.0
  0
LINE
  5
7A
330
47
100
AcDbEntity
  8
1
  6
Continuous
 62
     7
100
AcDbLine
 10
220.25653974877
 20
-266.746454750908
 30
0.0
 11
404.25653974877
 21
-266.746454750908
 31
0.0
  0
LINE
  5
7B
330
47
100
AcDbEntity
  8
1
  6
Continuous
 62
     7
100
AcDbLine
 10
227.25653974877
 20
-271.746454750908
 30
0.0
 11
227.25653974877
 21
-266.746454750908
 31
0.0
  0
LINE
  5
7C
330
47
100
AcDbEntity
  8
1
  6
Continuous
 62
     7
100
AcDbLine
 10
245.2565397487701
 20
-271.746454750908
 30
0.0
 11
245.2565397487701
 21
-266.746454750908
 31
0.0
  0
LINE
  5
7D
330
47
100
AcDbEntity
  8
1
  6
Continuous
 62
     7
100
AcDbLine
 10
220.25653974877
 20
-261.746454750908
 30
0.0
 11
404.25653974877
 21
-261.746454750908
 31
0.0
  0
LINE
  5
7E
330
47
100
AcDbEntity
  8
1
  6
Continuous
 62
     7
100
AcDbLine
 10
227.25653974877
 20
-266.746454750908
 30
0.0
 11
227.25653974877
 21
-261.746454750908
 31
0.0
  0
LINE
  5
7F
330
47
100
AcDbEntity
  8
1
  6
Continuous
 62
     7
100
AcDbLine
 10
245.2565397487701
 20
-266.746454750908
 30
0.0
 11
245.2565397487701
 21
-261.746454750908
 31
0.0
  0
LINE
  5
80
330
47
100
AcDbEntity
  8
1
  6
Continuous
 62
     7
100
AcDbLine
 10
220.25653974877
 20
-256.746454750908
 30
0.0
 11
404.25653974877
 21
-256.746454750908
 31
0.0
  0
LINE
  5
81
330
47
100
AcDbEntity
  8
1
  6
Continuous
 62
     7
100
AcDbLine
 10
227.25653974877
 20
-261.746454750908
 30
0.0
 11
227.25653974877
 21
-256.746454750908
 31
0.0
  0
LINE
  5
82
330
47
100
AcDbEntity
  8
1
  6
Continuous
 62
     7
100
AcDbLine
 10
245.2565397487701
 20
-261.746454750908
 30
0.0
 11
245.2565397487701
 21
-256.746454750908
 31
0.0
  0
LINE
  5
83
330
47
100
AcDbEntity
  8
1
  6
Continuous
 62
     7
100
AcDbLine
 10
220.25653974877
 20
-251.746454750908
 30
0.0
 11
404.25653974877
 21
-251.746454750908
 31
0.0
  0
LINE
  5
84
330
47
100
AcDbEntity
  8
1
  6
Continuous
 62
     7
100
AcDbLine
 10
227.25653974877
 20
-256.746454750908
 30
0.0
 11
227.25653974877
 21
-251.746454750908
 31
0.0
  0
LINE
  5
85
330
47
100
AcDbEntity
  8
1
  6
Continuous
 62
     7
100
AcDbLine
 10
245.2565397487701
 20
-256.746454750908
 30
0.0
 11
245.2565397487701
 21
-251.746454750908
 31
0.0
  0
LINE
  5
86
330
47
100
AcDbEntity
  8
1
  6
Continuous
 62
     7
100
AcDbLine
 10
117.2565397487698
 20
-102.746454750908
 30
0.0
 11
117.2565397487698
 21
-286.746454750908
 31
0.0
  0
LINE
  5
87
330
47
100
AcDbEntity
  8
1
  6
Continuous
 62
     7
100
AcDbLine
 10
220.25653974877
 20
-271.746454750908
 30
0.0
 11
404.25653974877
 21
-271.746454750908
 31
0.0
  0
LINE
  5
88
330
47
100
AcDbEntity
  8
1
  6
Continuous
 62
     7
100
AcDbLine
 10
220.25653974877
 20
-286.7464547509081
 30
0.0
 11
220.25653974877
 21
-251.746454750908
 31
0.0
  0
ARC
  5
89
102
{ACAD_REACTORS
330
A3
102
}
330
47
100
AcDbEntity
  8
1
  6
Continuous
 62
     7
100
AcDbCircle
 10
389.5311399833213
 20
-276.0152374388734
 30
0.0
 40
0.2649662124752543
100
AcDbArc
 50
30.00000000000757
 51
180.0
  0
ARC
  5
8A
102
{ACAD_REACTORS
330
A3
102
}
330
47
100
AcDbEntity
  8
1
  6
Continuous
 62
     7
100
AcDbCircle
 10
389.5995071041793
 20
-280.8988696782751
 30
0.0
 40
0.3333333333332575
100
AcDbArc
 50
180.0
 51
0.0
  0
ARC
  5
8B
102
{ACAD_REACTORS
330
A3
102
}
330
47
100
AcDbEntity
  8
1
  6
Continuous
 62
     7
100
AcDbCircle
 10
392.2661737708461
 20
-282.4381856803062
 30
0.0
 40
0.3333333333333712
100
AcDbArc
 50
180.0
 51
0.0
  0
ARC
  5
8C
102
{ACAD_REACTORS
330
A3
102
}
330
47
100
AcDbEntity
  8
1
  6
Continuous
 62
     7
100
AcDbCircle
 10
392.334540891704
 20
-276.0152374388734
 30
0.0
 40
0.2649662124752581
100
AcDbArc
 50
0.0
 51
149.9999999999863
  0
ARC
  5
8D
102
{ACAD_REACTORS
330
A4
102
}
330
47
100
AcDbEntity
  8
1
  6
Continuous
 62
     7
100
AcDbCircle
 10
388.266173770846
 20
-276.8239545907406
 30
0.0
 40
0.3333333333332575
100
AcDbArc
 50
0.0
 51
180.0
  0
ARC
  5
8E
102
{ACAD_REACTORS
330
A4
102
}
330
47
100
AcDbEntity
  8
1
  6
Continuous
 62
     7
100
AcDbCircle
 10
390.5995071041793
 20
-283.0151087572293
 30
0.0
 40
0.3333333333333425
100
AcDbArc
 50
240.0183606311578
 51
60.01836063113244
  0
ARC
  5
8F
102
{ACAD_REACTORS
330
A5
102
}
330
47
100
AcDbEntity
  8
1
  6
Continuous
 62
     7
100
AcDbCircle
 10
386.9328404375127
 20
-277.5931853599714
 30
0.0
 40
0.3333333333333144
100
AcDbArc
 50
0.0
 51
180.0
  0
ARC
  5
90
102
{ACAD_REACTORS
330
A5
102
}
330
47
100
AcDbEntity
  8
1
  6
Continuous
 62
     7
100
AcDbCircle
 10
386.9328404375127
 20
-280.8997241418448
 30
0.0
 40
0.3333333333334281
100
AcDbArc
 50
180.0
 51
0.0
  0
ARC
  5
91
102
{ACAD_REACTORS
330
A6
102
}
330
47
100
AcDbEntity
  8
1
  6
Continuous
 62
     7
100
AcDbCircle
 10
394.9328404375127
 20
-277.5931853599714
 30
0.0
 40
0.3333333333333709
100
AcDbArc
 50
240.0183606311493
 51
60.01836063116141
  0
ARC
  5
92
102
{ACAD_REACTORS
330
A6
102
}
330
47
100
AcDbEntity
  8
1
  6
Continuous
 62
     7
100
AcDbCircle
 10
394.9328404375127
 20
-279.246454750908
 30
0.0
 40
0.3333333333333712
100
AcDbArc
 50
270.0
 51
90.0
  0
ARC
  5
93
102
{ACAD_REACTORS
330
A6
102
}
330
47
100
AcDbEntity
  8
1
  6
Continuous
 62
     7
100
AcDbCircle
 10
394.9328404375127
 20
-280.8997241418448
 30
0.0
 40
0.3333333333333141
100
AcDbArc
 50
299.9816393688337
 51
119.9816393688409
  0
ARC
  5
94
102
{ACAD_REACTORS
330
A3
102
}
330
47
100
AcDbEntity
  8
1
  6
Continuous
 62
     7
100
AcDbCircle
 10
390.9328404375127
 20
-278.9131214175748
 30
0.0
 40
0.1666666666666797
100
AcDbArc
 50
209.9999999999447
 51
330.0000000000357
  0
ARC
  5
95
102
{ACAD_REACTORS
330
A4
102
}
330
47
100
AcDbEntity
  8
1
  6
Continuous
 62
     7
100
AcDbCircle
 10
388.5995071041793
 20
-281.4764336028753
 30
0.0
 40
0.6666666666665719
100
AcDbArc
 50
180.0000000000049
 51
240.018360631162
  0
ARC
  5
96
330
47
100
AcDbEntity
  8
1
  6
Continuous
 62
     7
100
AcDbCircle
 10
382.5996922379528
 20
-279.246454750908
 30
0.0
 40
0.1666666666666438
100
AcDbArc
 50
119.981639368904
 51
240.0183606311253
  0
ARC
  5
97
330
47
100
AcDbEntity
  8
1
  6
Continuous
 62
     7
100
AcDbCircle
 10
399.2659886370726
 20
-279.246454750908
 30
0.0
 40
0.1666666666667347
100
AcDbArc
 50
299.9816393688409
 51
60.01836063112984
  0
ARC
  5
98
102
{ACAD_REACTORS
330
A6
102
}
330
47
100
AcDbEntity
  8
1
  6
Continuous
 62
     7
100
AcDbCircle
 10
393.5995071041793
 20
-276.8239545907406
 30
0.0
 40
0.3333333333333292
100
AcDbArc
 50
60.01836063112268
 51
180.0
  0
ARC
  5
99
102
{ACAD_REACTORS
330
A6
102
}
330
47
100
AcDbEntity
  8
1
  6
Continuous
 62
     7
100
AcDbCircle
 10
393.5995071041793
 20
-281.6689549110754
 30
0.0
 40
0.3333333333332007
100
AcDbArc
 50
180.0
 51
299.9816393688676
  0
MTEXT
  5
9B
330
47
100
AcDbEntity
  8
1
 62
     7
100
AcDbMText
 10
263.7565397487697
 20
-97.7464547509079
 30
0.0
 40
4.0
 41
0.0
 71
     5
 72
     1
  1
Diritti riservati      All rights reserved
  7
CONVERTER_11
 73
     1
 44
1.32052821128451
  0
MTEXT
  5
9C
330
47
100
AcDbEntity
  8
1
 62
     7
100
AcDbMText
 10
222.25653974877
 20
-275.485815330152
 30
0.0
 40
3.0
 41
0.0
 71
     4
 72
     1
  1
Date
  7
CONVERTER_11
 73
     1
 44
1.32052821128451
  0
MTEXT
  5
9D
330
47
100
AcDbEntity
  8
1
 62
     7
100
AcDbMText
 10
232.85653974877
 20
-275.485815330152
 30
0.0
 40
3.0
 41
0.0
 71
     4
 72
     1
  1
21/05/07
  7
CONVERTER_11
 73
     1
 44
1.32052821128451
  0
MTEXT
  5
9E
330
47
100
AcDbEntity
  8
1
 62
     7
100
AcDbMText
 10
222.25653974877
 20
-282.996454750908
 30
0.0
 40
3.0
 41
0.0
 71
     4
 72
     1
  1
Sign.
  7
CONVERTER_11
 73
     1
 44
1.32052821128451
  0
MTEXT
  5
9F
330
47
100
AcDbEntity
  8
1
 62
     7
100
AcDbMText
 10
230.05653974877
 20
-282.496454750908
 30
0.0
 40
3.0
 41
0.0
 71
     4
 72
     1
  1
D. Bernasconi
  7
CONVERTER_11
 73
     1
 44
1.32052821128451
  0
MTEXT
  5
A0
330
47
100
AcDbEntity
  8
1
 62
     7
100
AcDbMText
 10
252.4328404375127
 20
-279.246454750908
 30
0.0
 40
4.5
 41
0.0
 71
     4
 72
     1
  1
CR 06 SC\PAnchorages x earth conn. and shielded c. x 06P
  7
CONVERTER_11
 73
     1
 44
0.90036014405762
  0
MTEXT
  5
A1
330
47
100
AcDbEntity
  8
1
 62
     7
100
AcDbMText
 10
368.9328404375127
 20
-275.485815330152
 30
0.0
 40
3.0
 41
0.0
 71
     5
 72
     1
  1
Scale
  7
CONVERTER_11
 73
     1
 44
1.32052821128451
  0
MTEXT
  5
A2
330
47
100
AcDbEntity
  8
1
 62
     7
100
AcDbMText
 10
368.9328404375127
 20
-281.685815330152
 30
0.0
 40
4.5
 41
0.0
 71
     5
 72
     1
  1
2:1
  7
CONVERTER_11
 73
     1
 44
1.32052821128451
  0
HATCH
  5
A3
330
47
100
AcDbEntity
  8
1
  6
Continuous
 62
     7
100
AcDbHatch
 10
0.0
 20
0.0
 30
0.0
210
0.0
220
0.0
230
1.0
  2
SOLID
 70
     1
 71
     1
 91
        1
 92
        1
 93
       16
 72
     2
 10
389.5311399833213
 20
-276.0152374388734
 40
0.2649662124752543
 50
30.00000000000757
 51
180.0
 73
     1
 72
     1
 10
389.266173770846
 20
-276.0152374388734
 11
389.266173770846
 21
-279.246454750908
 72
     1
 10
389.266173770846
 20
-279.246454750908
 11
389.266173770846
 21
-280.8988696782751
 72
     2
 10
389.5995071041793
 20
-280.8988696782751
 40
0.3333333333332575
 50
180.0
 51
360.0
 73
     1
 72
     1
 10
389.9328404375127
 20
-280.8988696782751
 11
389.9328404375127
 21
-279.246454750908
 72
     1
 10
389.9328404375127
 20
-279.246454750908
 11
389.9328404375127
 21
-277.5144039433392
 72
     1
 10
389.9328404375127
 20
-277.5144039433392
 11
390.7885028702152
 21
-278.996454750908
 72
     2
 10
390.9328404375127
 20
-278.9131214175748
 40
0.1666666666666797
 50
209.9999999999447
 51
330.0000000000357
 73
     1
 72
     1
 10
391.0771780048101
 20
-278.996454750908
 11
391.9328404375127
 21
-277.5144039433392
 72
     1
 10
391.9328404375127
 20
-277.5144039433392
 11
391.9328404375127
 21
-279.246454750908
 72
     1
 10
391.9328404375127
 20
-279.246454750908
 11
391.9328404375127
 21
-282.4381856803062
 72
     2
 10
392.2661737708461
 20
-282.4381856803062
 40
0.3333333333333712
 50
180.0
 51
360.0
 73
     1
 72
     1
 10
392.5995071041793
 20
-282.4381856803062
 11
392.5995071041793
 21
-276.0152374388734
 72
     2
 10
392.334540891704
 20
-276.0152374388734
 40
0.2649662124752581
 50
0.0
 51
149.9999999999863
 73
     1
 72
     1
 10
392.105073420556
 20
-275.8827543326357
 11
390.9328404375127
 21
-277.9131214175748
 72
     1
 10
390.9328404375127
 20
-277.9131214175748
 11
389.7606074544694
 21
-275.8827543326357
 97
       16
330
6A
330
8C
330
69
330
8B
330
68
330
5C
330
5D
330
94
330
5E
330
5F
330
67
330
8A
330
66
330
64
330
89
330
65
 75
     0
 76
     1
 98
        1
 10
0.0
 20
0.0
  0
HATCH
  5
A4
330
47
100
AcDbEntity
  8
1
  6
Continuous
 62
     7
100
AcDbHatch
 10
0.0
 20
0.0
 30
0.0
210
0.0
220
0.0
230
1.0
  2
SOLID
 70
     1
 71
     1
 91
        1
 92
        1
 93
        7
 72
     1
 10
388.5995071041793
 20
-276.8239545907406
 11
388.5995071041793
 21
-281.4764336028753
 72
     1
 10
388.5995071041793
 20
-281.4764336028753
 11
390.7660812553426
 21
-282.7263802285464
 72
     2
 10
390.5995071041793
 20
-283.0151087572293
 40
0.3333333333333425
 50
299.9816393688676
 51
479.9816393688421
 73
     0
 72
     1
 10
390.4329329530161
 20
-283.3038372859122
 11
388.266358801853
 21
-282.0538906602411
 72
     2
 10
388.5995071041793
 20
-281.4764336028753
 40
0.6666666666665719
 50
119.9816393688379
 51
179.9999999999951
 73
     0
 72
     1
 10
387.9328404375127
 20
-281.4764336028754
 11
387.9328404375127
 21
-276.8239545907406
 72
     2
 10
388.266173770846
 20
-276.8239545907406
 40
0.3333333333332575
 50
180.0
 51
360.0
 73
     0
 97
        7
330
6C
330
6D
330
8E
330
6E
330
95
330
6B
330
8D
 75
     0
 76
     1
 98
        1
 10
0.0
 20
0.0
  0
HATCH
  5
A5
330
47
100
AcDbEntity
  8
1
  6
Continuous
 62
     7
100
AcDbHatch
 10
0.0
 20
0.0
 30
0.0
210
0.0
220
0.0
230
1.0
  2
SOLID
 70
     1
 71
     1
 91
        1
 92
        1
 93
        5
 72
     1
 10
387.266173770846
 20
-277.5931853599714
 11
387.266173770846
 21
-280.7072028336447
 72
     1
 10
387.266173770846
 20
-280.7072028336447
 11
387.266173770846
 21
-280.8997241418448
 72
     2
 10
386.9328404375127
 20
-280.8997241418448
 40
0.3333333333334281
 50
0.0
 51
180.0
 73
     0
 72
     1
 10
386.5995071041793
 20
-280.8997241418448
 11
386.5995071041793
 21
-277.5931853599714
 72
     2
 10
386.9328404375127
 20
-277.5931853599714
 40
0.3333333333333144
 50
180.0
 51
360.0
 73
     0
 97
        5
330
6F
330
70
330
90
330
71
330
8F
 75
     0
 76
     1
 98
        1
 10
0.0
 20
0.0
  0
HATCH
  5
A6
330
47
100
AcDbEntity
  8
1
  6
Continuous
 62
     7
100
AcDbHatch
 10
0.0
 20
0.0
 30
0.0
210
0.0
220
0.0
230
1.0
  2
SOLID
 70
     1
 71
     1
 91
        1
 92
        1
 93
       14
 72
     1
 10
394.7662662863495
 20
-277.8819138886543
 11
393.9328404375127
 21
-277.4010912835561
 72
     1
 10
393.9328404375127
 20
-277.4010912835561
 11
393.9328404375127
 21
-278.9131214175748
 72
     1
 10
393.9328404375127
 20
-278.9131214175748
 11
394.9328404375127
 21
-278.9131214175748
 72
     2
 10
394.9328404375127
 20
-279.246454750908
 40
0.3333333333333712
 50
270.0
 51
450.0
 73
     0
 72
     1
 10
394.9328404375127
 20
-279.5797880842414
 11
393.9328404375127
 21
-279.5797880842414
 72
     1
 10
393.9328404375127
 20
-279.5797880842414
 11
393.9328404375127
 21
-281.0918182182601
 72
     1
 10
393.9328404375127
 20
-281.0918182182601
 11
394.7662662863495
 21
-280.6109956131618
 72
     2
 10
394.9328404375127
 20
-280.8997241418448
 40
0.3333333333333141
 50
240.0183606311591
 51
420.0183606311662
 73
     0
 72
     1
 10
395.0994145886758
 20
-281.1884526705277
 11
393.7660812553426
 21
-281.9576834397583
 72
     2
 10
393.5995071041793
 20
-281.6689549110754
 40
0.3333333333332007
 50
60.01836063113244
 51
180.0
 73
     0
 72
     1
 10
393.2661737708461
 20
-281.6689549110754
 11
393.2661737708461
 21
-276.8239545907406
 72
     2
 10
393.5995071041793
 20
-276.8239545907406
 40
0.3333333333333292
 50
180.0
 51
299.9816393688773
 73
     0
 72
     1
 10
393.7660812553426
 20
-276.5352260620578
 11
395.0994145886758
 21
-277.3044568312886
 72
     2
 10
394.9328404375127
 20
-277.5931853599714
 40
0.3333333333333709
 50
299.9816393688386
 51
479.9816393688507
 73
     0
 97
       14
330
72
330
98
330
5B
330
99
330
79
330
93
330
78
330
77
330
76
330
92
330
75
330
74
330
73
330
91
 75
     0
 76
     1
 98
        1
 10
0.0
 20
0.0
  0
ENDBLK
  5
49
330
47
100
AcDbEntity
  8
0
100
AcDbBlockEnd
  0
BLOCK
  5
4C
330
4A
100
AcDbEntity
  8
0
100
AcDbBlockBegin
  2
A4_oriz
 70
     0
 10
204.628269874385
 20
-145.873227375454
 30
0.0
  3
A4_oriz
  1

  0
INSERT
  5
4B
330
4A
100
AcDbEntity
  8
1
100
AcDbBlockReference
  2
_formato_A4
 10
204.628269874385
 20
-145.873227375454
 30
0.0
 41
0.5
 42
0.5
 43
0.5
  0
ENDBLK
  5
4D
330
4A
100
AcDbEntity
  8
0
100
AcDbBlockEnd
  0
BLOCK
  5
12F
330
127
100
AcDbEntity
  8
0
100
AcDbBlockBegin
  2
*D3
 70
     1
 10
0.0
 20
0.0
 30
0.0
  3
*D3
  1

  0
LINE
  5
128
330
127
100
AcDbEntity
  8
1
  6
Continuous
 62
     2
100
AcDbLine
 10
82.11580522617325
 20
-117.797021681637
 30
0.0
 11
115.1156870752353
 21
-117.797021681637
 31
0.0
  0
LINE
  5
129
330
127
100
AcDbEntity
  8
1
  6
Continuous
 62
     2
100
AcDbLine
 10
82.11580522617325
 20
-111.0365759768914
 30
0.0
 11
82.11580522617325
 21
-118.297021681637
 31
0.0
  0
LINE
  5
12A
330
127
100
AcDbEntity
  8
1
  6
Continuous
 62
     2
100
AcDbLine
 10
115.1156870752353
 20
-111.0148368464566
 30
0.0
 11
115.1156870752353
 21
-118.297021681637
 31
0.0
  0
SOLID
  5
12B
330
127
100
AcDbEntity
  8
1
 62
     2
100
AcDbTrace
 10
83.61580522617325
 20
-117.5995429352559
 30
0.0
 11
83.61580522617325
 21
-117.9945004280181
 31
0.0
 12
82.11580522617325
 22
-117.797021681637
 32
0.0
 13
82.11580522617325
 23
-117.797021681637
 33
0.0
  0
SOLID
  5
12C
330
127
100
AcDbEntity
  8
1
 62
     2
100
AcDbTrace
 10
113.6156870752353
 20
-117.9945004280181
 30
0.0
 11
113.6156870752353
 21
-117.5995429352559
 31
0.0
 12
115.1156870752353
 22
-117.797021681637
 32
0.0
 13
115.1156870752353
 23
-117.797021681637
 33
0.0
  0
MTEXT
  5
12E
330
127
100
AcDbEntity
  8
1
 62
     4
100
AcDbMText
 10
97.4907461507043
 20
-116.797021681637
 30
0.0
 40
1.5
 41
0.0
 71
     7
 72
     1
  1
33
  7
CONVERTER_12
 11
0.9999999999970619
 21
2.424068405545306E-6
 31
0.0
 73
     1
 44
0.60024009603842
  0
ENDBLK
  5
130
330
127
100
AcDbEntity
  8
0
100
AcDbBlockEnd
  0
BLOCK
  5
13A
330
133
100
AcDbEntity
  8
0
100
AcDbBlockBegin
  2
*D4
 70
     1
 10
0.0
 20
0.0
 30
0.0
  3
*D4
  1

  0
LINE
  5
134
330
133
100
AcDbEntity
  8
1
  6
Continuous
 62
     2
100
AcDbLine
 10
88.61568707523533
 20
-95.5348957222282
 30
0.0
 11
108.6156870752353
 21
-95.5348957222282
 31
0.0
  0
LINE
  5
135
330
133
100
AcDbEntity
  8
1
  6
Continuous
 62
     2
100
AcDbLine
 10
108.6156870752353
 20
-82.18983723704986
 30
0.0
 11
108.6156870752353
 21
-96.0348957222282
 31
0.0
  0
LINE
  5
136
330
133
100
AcDbEntity
  8
1
  6
Continuous
 62
     2
100
AcDbLine
 10
88.61568707523533
 20
-82.18983723704986
 30
0.0
 11
88.61568707523533
 21
-96.0348957222282
 31
0.0
  0
SOLID
  5
137
330
133
100
AcDbEntity
  8
1
 62
     2
100
AcDbTrace
 10
90.11568707523533
 20
-95.3374169758471
 30
0.0
 11
90.11568707523533
 21
-95.7323744686093
 31
0.0
 12
88.61568707523533
 22
-95.5348957222282
 32
0.0
 13
88.61568707523533
 23
-95.5348957222282
 33
0.0
  0
SOLID
  5
138
330
133
100
AcDbEntity
  8
1
 62
     2
100
AcDbTrace
 10
107.1156870752353
 20
-95.7323744686093
 30
0.0
 11
107.1156870752353
 21
-95.3374169758471
 31
0.0
 12
108.6156870752353
 22
-95.5348957222282
 32
0.0
 13
108.6156870752353
 23
-95.5348957222282
 33
0.0
  0
MTEXT
  5
139
330
133
100
AcDbEntity
  8
1
 62
     4
100
AcDbMText
 10
97.49068707523531
 20
-94.5348957222282
 30
0.0
 40
1.5
 41
0.0
 71
     7
 72
     1
  1
20
  7
CONVERTER_12
 11
0.9999999999970619
 21
2.424068405545306E-6
 31
0.0
 73
     1
 44
0.60024009603842
  0
ENDBLK
  5
13B
330
133
100
AcDbEntity
  8
0
100
AcDbBlockEnd
  0
BLOCK
  5
145
330
13E
100
AcDbEntity
  8
0
100
AcDbBlockBegin
  2
*D5
 70
     1
 10
0.0
 20
0.0
 30
0.0
  3
*D5
  1

  0
LINE
  5
13F
330
13E
100
AcDbEntity
  8
1
  6
Continuous
 62
     2
100
AcDbLine
 10
124.376066125627
 20
-67.26483723704986
 30
0.0
 11
124.376066125627
 21
-82.06483723704986
 31
0.0
  0
LINE
  5
140
330
13E
100
AcDbEntity
  8
1
  6
Continuous
 62
     2
100
AcDbLine
 10
106.3656870752353
 20
-82.06483723704986
 30
0.0
 11
124.876066125627
 21
-82.06483723704986
 31
0.0
  0
LINE
  5
141
330
13E
100
AcDbEntity
  8
1
  6
Continuous
 62
     2
100
AcDbLine
 10
109.3656870752353
 20
-67.26483723704986
 30
0.0
 11
124.876066125627
 21
-67.26483723704986
 31
0.0
  0
SOLID
  5
142
330
13E
100
AcDbEntity
  8
1
 62
     2
100
AcDbTrace
 10
124.5735448720081
 20
-68.76483723704986
 30
0.0
 11
124.1785873792459
 21
-68.76483723704986
 31
0.0
 12
124.376066125627
 22
-67.26483723704986
 32
0.0
 13
124.376066125627
 23
-67.26483723704986
 33
0.0
  0
SOLID
  5
143
330
13E
100
AcDbEntity
  8
1
 62
     2
100
AcDbTrace
 10
124.1785873792459
 20
-80.56483723704986
 30
0.0
 11
124.5735448720081
 21
-80.56483723704986
 31
0.0
 12
124.376066125627
 22
-82.06483723704986
 32
0.0
 13
124.376066125627
 23
-82.06483723704986
 33
0.0
  0
MTEXT
  5
144
330
13E
100
AcDbEntity
  8
1
 62
     4
100
AcDbMText
 10
123.226066125627
 20
-76.50233723704986
 30
0.0
 40
1.5
 41
0.0
 71
     7
 72
     1
  1
14,8
  7
CONVERTER_12
 11
0.0
 21
1.0
 31
0.0
 73
     1
 44
0.60024009603842
  0
ENDBLK
  5
146
330
13E
100
AcDbEntity
  8
0
100
AcDbBlockEnd
  0
BLOCK
  5
150
330
149
100
AcDbEntity
  8
0
100
AcDbBlockBegin
  2
*D6
 70
     1
 10
0.0
 20
0.0
 30
0.0
  3
*D6
  1

  0
LINE
  5
14A
330
149
100
AcDbEntity
  8
1
  6
Continuous
 62
     2
100
AcDbLine
 10
159.2156869971167
 20
-61.95461965762718
 30
0.0
 11
165.7156869971167
 21
-61.95461965762718
 31
0.0
  0
LINE
  5
14B
330
149
100
AcDbEntity
  8
1
  6
Continuous
 62
     2
100
AcDbLine
 10
159.2156869971167
 20
-67.01483723704986
 30
0.0
 11
159.2156869971167
 21
-61.45461965762718
 31
0.0
  0
LINE
  5
14C
330
149
100
AcDbEntity
  8
1
  6
Continuous
 62
     2
100
AcDbLine
 10
165.7156869971167
 20
-101.7048368464566
 30
0.0
 11
165.7156869971167
 21
-61.45461965762718
 31
0.0
  0
SOLID
  5
14D
330
149
100
AcDbEntity
  8
1
 62
     2
100
AcDbTrace
 10
160.7156869971167
 20
-61.75714091124609
 30
0.0
 11
160.7156869971167
 21
-62.15209840400828
 31
0.0
 12
159.2156869971167
 22
-61.95461965762718
 32
0.0
 13
159.2156869971167
 23
-61.95461965762718
 33
0.0
  0
SOLID
  5
14E
330
149
100
AcDbEntity
  8
1
 62
     2
100
AcDbTrace
 10
164.2156869971167
 20
-62.15209840400828
 30
0.0
 11
164.2156869971167
 21
-61.75714091124609
 31
0.0
 12
165.7156869971167
 22
-61.95461965762718
 32
0.0
 13
165.7156869971167
 23
-61.95461965762718
 33
0.0
  0
MTEXT
  5
14F
330
149
100
AcDbEntity
  8
1
 62
     4
100
AcDbMText
 10
161.0781869971167
 20
-60.80461965762719
 30
0.0
 40
1.5
 41
0.0
 71
     7
 72
     1
  1
6,5
  7
CONVERTER_12
 11
0.9999999999970619
 21
2.424068405545306E-6
 31
0.0
 73
     1
 44
0.60024009603842
  0
ENDBLK
  5
151
330
149
100
AcDbEntity
  8
0
100
AcDbBlockEnd
  0
BLOCK
  5
15B
330
154
100
AcDbEntity
  8
0
100
AcDbBlockBegin
  2
*D7
 70
     1
 10
0.0
 20
0.0
 30
0.0
  3
*D7
  1

  0
LINE
  5
155
330
154
100
AcDbEntity
  8
1
  6
Continuous
 62
     2
100
AcDbLine
 10
148.559776729414
 20
-110.7648368464566
 30
0.0
 11
148.559776729414
 21
-67.26483723704986
 31
0.0
  0
LINE
  5
156
330
154
100
AcDbEntity
  8
1
  6
Continuous
 62
     2
100
AcDbLine
 10
156.9656869971166
 20
-67.26483723704986
 30
0.0
 11
148.059776729414
 21
-67.26483723704986
 31
0.0
  0
LINE
  5
157
330
154
100
AcDbEntity
  8
1
  6
Continuous
 62
     2
100
AcDbLine
 10
162.0156869971167
 20
-110.7648368464566
 30
0.0
 11
148.059776729414
 21
-110.7648368464566
 31
0.0
  0
SOLID
  5
158
330
154
100
AcDbEntity
  8
1
 62
     2
100
AcDbTrace
 10
148.3622979830329
 20
-109.2648368464566
 30
0.0
 11
148.7572554757951
 21
-109.2648368464566
 31
0.0
 12
148.559776729414
 22
-110.7648368464566
 32
0.0
 13
148.559776729414
 23
-110.7648368464566
 33
0.0
  0
SOLID
  5
159
330
154
100
AcDbEntity
  8
1
 62
     2
100
AcDbTrace
 10
148.7572554757951
 20
-68.76483723704986
 30
0.0
 11
148.3622979830329
 21
-68.76483723704986
 31
0.0
 12
148.559776729414
 22
-67.26483723704986
 32
0.0
 13
148.559776729414
 23
-67.26483723704986
 33
0.0
  0
MTEXT
  5
15A
330
154
100
AcDbEntity
  8
1
 62
     4
100
AcDbMText
 10
147.409776729414
 20
-91.07733704175322
 30
0.0
 40
1.5
 41
0.0
 71
     7
 72
     1
  1
43,5
  7
CONVERTER_12
 11
0.0
 21
1.0
 31
0.0
 73
     1
 44
0.60024009603842
  0
ENDBLK
  5
15C
330
154
100
AcDbEntity
  8
0
100
AcDbBlockEnd
  0
BLOCK
  5
166
330
15F
100
AcDbEntity
  8
0
100
AcDbBlockBegin
  2
*D8
 70
     1
 10
0.0
 20
0.0
 30
0.0
  3
*D8
  1

  0
LINE
  5
160
330
15F
100
AcDbEntity
  8
1
  6
Continuous
 62
     2
100
AcDbLine
 10
108.6156870752353
 20
-60.9547545931959
 30
0.0
 11
93.61568707523531
 21
-60.9547545931959
 31
0.0
  0
LINE
  5
161
330
15F
100
AcDbEntity
  8
1
  6
Continuous
 62
     2
100
AcDbLine
 10
93.61568707523531
 20
-67.13983723704986
 30
0.0
 11
93.61568707523531
 21
-60.4547545931959
 31
0.0
  0
LINE
  5
162
330
15F
100
AcDbEntity
  8
1
  6
Continuous
 62
     2
100
AcDbLine
 10
108.6156870752353
 20
-67.13983723704986
 30
0.0
 11
108.6156870752353
 21
-60.4547545931959
 31
0.0
  0
SOLID
  5
163
330
15F
100
AcDbEntity
  8
1
 62
     2
100
AcDbTrace
 10
107.1156870752353
 20
-61.15223333957699
 30
0.0
 11
107.1156870752353
 21
-60.75727584681481
 31
0.0
 12
108.6156870752353
 22
-60.9547545931959
 32
0.0
 13
108.6156870752353
 23
-60.9547545931959
 33
0.0
  0
SOLID
  5
164
330
15F
100
AcDbEntity
  8
1
 62
     2
100
AcDbTrace
 10
95.11568707523531
 20
-60.75727584681481
 30
0.0
 11
95.11568707523531
 21
-61.15223333957699
 31
0.0
 12
93.61568707523531
 22
-60.9547545931959
 32
0.0
 13
93.61568707523531
 23
-60.9547545931959
 33
0.0
  0
MTEXT
  5
165
330
15F
100
AcDbEntity
  8
1
 62
     4
100
AcDbMText
 10
100.2156870752353
 20
-59.9547545931959
 30
0.0
 40
1.5
 41
0.0
 71
     7
 72
     1
  1
15
  7
CONVERTER_12
 11
0.9999999999970619
 21
2.424068405545306E-6
 31
0.0
 73
     1
 44
0.60024009603842
  0
ENDBLK
  5
167
330
15F
100
AcDbEntity
  8
0
100
AcDbBlockEnd
  0
BLOCK
  5
171
330
16A
100
AcDbEntity
  8
0
100
AcDbBlockBegin
  2
*D9
 70
     1
 10
0.0
 20
0.0
 30
0.0
  3
*D9
  1

  0
LINE
  5
16B
330
16A
100
AcDbEntity
  8
1
  6
Continuous
 62
     2
100
AcDbLine
 10
74.425082383414
 20
-110.7865759768914
 30
0.0
 11
74.425082383414
 21
-87.78657597689137
 31
0.0
  0
LINE
  5
16C
330
16A
100
AcDbEntity
  8
1
  6
Continuous
 62
     2
100
AcDbLine
 10
79.86580522617325
 20
-87.78657597689137
 30
0.0
 11
73.925082383414
 21
-87.78657597689137
 31
0.0
  0
LINE
  5
16D
330
16A
100
AcDbEntity
  8
1
  6
Continuous
 62
     2
100
AcDbLine
 10
79.86580522617324
 20
-110.7865759768914
 30
0.0
 11
73.925082383414
 21
-110.7865759768914
 31
0.0
  0
SOLID
  5
16E
330
16A
100
AcDbEntity
  8
1
 62
     2
100
AcDbTrace
 10
74.2276036370329
 20
-109.2865759768914
 30
0.0
 11
74.62256112979509
 21
-109.2865759768914
 31
0.0
 12
74.425082383414
 22
-110.7865759768914
 32
0.0
 13
74.425082383414
 23
-110.7865759768914
 33
0.0
  0
SOLID
  5
16F
330
16A
100
AcDbEntity
  8
1
 62
     2
100
AcDbTrace
 10
74.62256112979509
 20
-89.28657597689137
 30
0.0
 11
74.2276036370329
 21
-89.28657597689137
 31
0.0
 12
74.425082383414
 22
-87.78657597689137
 32
0.0
 13
74.425082383414
 23
-87.78657597689137
 33
0.0
  0
MTEXT
  5
170
330
16A
100
AcDbEntity
  8
1
 62
     4
100
AcDbMText
 10
73.425082383414
 20
-100.4115759768914
 30
0.0
 40
1.5
 41
0.0
 71
     7
 72
     1
  1
23
  7
CONVERTER_12
 11
0.0
 21
1.0
 31
0.0
 73
     1
 44
0.60024009603842
  0
ENDBLK
  5
172
330
16A
100
AcDbEntity
  8
0
100
AcDbBlockEnd
  0
BLOCK
  5
17D
330
175
100
AcDbEntity
  8
0
100
AcDbBlockBegin
  2
*D10
 70
     1
 10
0.0
 20
0.0
 30
0.0
  3
*D10
  1

  0
LINE
  5
176
330
175
100
AcDbEntity
  8
1
  6
Continuous
 62
     2
100
AcDbLine
 10
161.2656869971167
 20
-117.016649754486
 30
0.0
 11
170.1656869971167
 21
-117.016649754486
 31
0.0
  0
LINE
  5
177
330
175
100
AcDbEntity
  8
1
  6
Continuous
 62
     2
100
AcDbLine
 10
170.1656869971167
 20
-110.0148368464566
 30
0.0
 11
170.1656869971167
 21
-117.516649754486
 31
0.0
  0
LINE
  5
178
330
175
100
AcDbEntity
  8
1
  6
Continuous
 62
     2
100
AcDbLine
 10
161.2656869971167
 20
-111.870060408734
 30
0.0
 11
161.2656869971167
 21
-117.516649754486
 31
0.0
  0
LINE
  5
179
330
175
100
AcDbEntity
  8
1
  6
Continuous
 62
     2
100
AcDbLine
 10
161.2656869971167
 20
-110.0148368464566
 30
0.0
 11
161.2656869971167
 21
-110.49453997675
 31
0.0
  0
SOLID
  5
17A
330
175
100
AcDbEntity
  8
1
 62
     2
100
AcDbTrace
 10
162.7656869971167
 20
-116.8191710081049
 30
0.0
 11
162.7656869971167
 21
-117.2141285008671
 31
0.0
 12
161.2656869971167
 22
-117.016649754486
 32
0.0
 13
161.2656869971167
 23
-117.016649754486
 33
0.0
  0
SOLID
  5
17B
330
175
100
AcDbEntity
  8
1
 62
     2
100
AcDbTrace
 10
168.6656869971167
 20
-117.2141285008671
 30
0.0
 11
168.6656869971167
 21
-116.8191710081049
 31
0.0
 12
170.1656869971167
 22
-117.016649754486
 32
0.0
 13
170.1656869971167
 23
-117.016649754486
 33
0.0
  0
MTEXT
  5
17C
330
175
100
AcDbEntity
  8
1
 62
     4
100
AcDbMText
 10
164.2531869971167
 20
-115.866649754486
 30
0.0
 40
1.5
 41
0.0
 71
     7
 72
     1
  1
8,9
  7
CONVERTER_12
 11
0.9999999999970619
 21
2.424068405545306E-6
 31
0.0
 73
     1
 44
0.60024009603842
  0
ENDBLK
  5
17E
330
175
100
AcDbEntity
  8
0
100
AcDbBlockEnd
  0
BLOCK
  5
187
330
181
100
AcDbEntity
  8
0
100
AcDbBlockBegin
  2
*D11
 70
     1
 10
0.0
 20
0.0
 30
0.0
  3
*D11
  1

  0
LINE
  5
182
330
181
100
AcDbEntity
  8
1
  6
Continuous
 62
     2
100
AcDbLine
 10
176.363289517382
 20
-110.712810822735
 30
0.0
 11
183.288289517382
 21
-110.712810822735
 31
0.0
  0
LINE
  5
183
330
181
100
AcDbEntity
  8
1
  6
Continuous
 62
     2
100
AcDbLine
 10
161.7018395655661
 20
-104.5880754453516
 30
0.0
 11
176.363289517382
 21
-110.712810822735
 31
0.0
  0
SOLID
  5
184
330
181
100
AcDbEntity
  8
1
 62
     2
100
AcDbTrace
 10
169.1136123978183
 20
-107.4702831648544
 30
0.0
 11
168.9613711382917
 21
-107.8347197436808
 31
0.0
 12
167.6534064468307
 22
-107.0743078676797
 32
0.0
 13
167.6534064468307
 23
-107.0743078676797
 33
0.0
  0
SOLID
  5
185
330
181
100
AcDbEntity
  8
1
 62
     2
100
AcDbTrace
 10
162.317761596415
 20
-105.0593905280588
 30
0.0
 11
162.4700028559416
 21
-104.6949539492323
 31
0.0
 12
163.7779675474026
 22
-105.4553658252335
 32
0.0
 13
163.7779675474026
 23
-105.4553658252335
 33
0.0
  0
MTEXT
  5
186
330
181
100
AcDbEntity
  8
1
 62
     4
100
AcDbMText
 10
179.2832895173856
 20
-109.5628138043391
 30
0.0
 40
1.5
 41
0.0
 71
     7
 72
     1
  1
\C4;\U+00f8\C4;4,2
  7
CONVERTER_12
 11
0.9999999999970619
 21
2.424068405545306E-6
 31
0.0
 73
     1
 44
0.60024009603842
  0
ENDBLK
  5
188
330
181
100
AcDbEntity
  8
0
100
AcDbBlockEnd
  0
BLOCK
  5
190
330
18A
100
AcDbEntity
  8
0
100
AcDbBlockBegin
  2
*D12
 70
     1
 10
0.0
 20
0.0
 30
0.0
  3
*D12
  1

  0
LINE
  5
18B
330
18A
100
AcDbEntity
  8
1
  6
Continuous
 62
     2
100
AcDbLine
 10
95.26333506590002
 20
-73.73773630104822
 30
0.0
 11
83.28656761067431
 21
-76.41483723704987
 31
0.0
  0
LINE
  5
18C
330
18A
100
AcDbEntity
  8
1
  6
Continuous
 62
     2
100
AcDbLine
 10
83.28656761067431
 20
-76.41483723704987
 30
0.0
 11
77.93656761067432
 21
-76.41483723704987
 31
0.0
  0
SOLID
  5
18D
330
18A
100
AcDbEntity
  8
1
 62
     2
100
AcDbTrace
 10
87.74305525483155
 20
-75.62105502566924
 30
0.0
 11
87.6568986757208
 21
-75.2356092253744
 31
0.0
 12
89.16385272668724
 22
-75.10112003046241
 32
0.0
 13
89.16385272668724
 23
-75.10112003046241
 33
0.0
  0
SOLID
  5
18E
330
18A
100
AcDbEntity
  8
1
 62
     2
100
AcDbTrace
 10
94.48831889563911
 20
-73.7086194484305
 30
0.0
 11
94.57447547474986
 21
-74.09406524872533
 31
0.0
 12
93.06752142378342
 22
-74.22855444363732
 32
0.0
 13
93.06752142378342
 23
-74.22855444363732
 33
0.0
  0
MTEXT
  5
18F
330
18A
100
AcDbEntity
  8
1
 62
     4
100
AcDbMText
 10
78.65656761067794
 20
-75.414840218654
 30
0.0
 40
1.5
 41
0.0
 71
     7
 72
     1
  1
\C4;M\C4;4
  7
CONVERTER_12
 11
0.9999999999970619
 21
2.424068405545306E-6
 31
0.0
 73
     1
 44
0.60024009603842
  0
ENDBLK
  5
191
330
18A
100
AcDbEntity
  8
0
100
AcDbBlockEnd
  0
BLOCK
  5
199
330
193
100
AcDbEntity
  8
0
100
AcDbBlockBegin
  2
*D13
 70
     1
 10
0.0
 20
0.0
 30
0.0
  3
*D13
  1

  0
LINE
  5
194
330
193
100
AcDbEntity
  8
1
  6
Continuous
 62
     2
100
AcDbLine
 10
91.7392551158324
 20
-76.48978960006401
 30
0.0
 11
82.0265038033627
 21
-82.9421611820574
 31
0.0
  0
LINE
  5
195
330
193
100
AcDbEntity
  8
1
  6
Continuous
 62
     2
100
AcDbLine
 10
82.0265038033627
 20
-82.9421611820574
 30
0.0
 11
76.6765038033627
 21
-82.9421611820574
 31
0.0
  0
SOLID
  5
196
330
193
100
AcDbEntity
  8
1
 62
     2
100
AcDbTrace
 10
86.22610672436647
 20
-80.38936556021004
 30
0.0
 11
86.00755856114887
 21
-80.06038513306702
 31
0.0
 12
87.3662598589965
 22
-79.39485629184419
 32
0.0
 13
87.3662598589965
 23
-79.39485629184419
 33
0.0
  0
SOLID
  5
197
330
193
100
AcDbEntity
  8
1
 62
     2
100
AcDbTrace
 10
91.00526742610418
 20
-76.74030891388968
 30
0.0
 11
91.22381558932179
 21
-77.0692893410327
 31
0.0
 12
89.86511429147416
 22
-77.73481818225552
 32
0.0
 13
89.86511429147416
 23
-77.73481818225552
 33
0.0
  0
MTEXT
  5
198
330
193
100
AcDbEntity
  8
1
 62
     4
100
AcDbMText
 10
77.39650380336633
 20
-81.94216416366154
 30
0.0
 40
1.5
 41
0.0
 71
     7
 72
     1
  1
\C4;M\C4;3
  7
CONVERTER_12
 11
0.9999999999970619
 21
2.424068405545306E-6
 31
0.0
 73
     1
 44
0.60024009603842
  0
ENDBLK
  5
19A
330
193
100
AcDbEntity
  8
0
100
AcDbBlockEnd
  0
ENDSEC
  0
SECTION
  2
ENTITIES
  0
INSERT
  5
4E
330
1F
100
AcDbEntity
  8
0
100
AcDbBlockReference
  2
A4_oriz
 10
204.628269874385
 20
-145.873227375454
 30
0.0
  0
LINE
  5
A7
330
1F
100
AcDbEntity
  8
1
  6
Continuous
 62
     7
100
AcDbLine
 10
82.61580522617325
 20
-91.26483684645659
 30
0.0
 11
82.11580522617325
 21
-91.26483684645659
 31
0.0
  0
LINE
  5
A8
330
1F
100
AcDbEntity
  8
1
  6
Continuous
 62
     7
100
AcDbLine
 10
82.61580522617326
 20
-87.76483684645659
 30
0.0
 11
82.61571661471487
 21
-87.76483684645659
 31
0.0
  0
LINE
  5
A9
330
1F
100
AcDbEntity
  8
1
  6
Continuous
 62
     2
100
AcDbLine
 10
82.61580522617325
 20
-91.26483684645659
 30
0.0
 11
82.61580522617326
 21
-87.76483684645659
 31
0.0
  0
LINE
  5
AA
330
1F
100
AcDbEntity
  8
1
  6
Continuous
 62
     7
100
AcDbLine
 10
82.61571661471487
 20
-87.76483684645659
 30
0.0
 11
82.11580522617326
 21
-87.78657597689138
 31
0.0
  0
LINE
  5
AB
330
1F
100
AcDbEntity
  8
0
  6
Continuous
 62
     7
100
AcDbLine
 10
82.11580522617325
 20
-91.26483684645659
 30
0.0
 11
82.11580522617325
 21
-91.28657597689138
 31
0.0
  0
LINE
  5
AC
330
1F
100
AcDbEntity
  8
1
  6
Continuous
 62
     7
100
AcDbLine
 10
85.11568707523533
 20
-91.26483684645659
 30
0.0
 11
82.61580522617325
 21
-91.26483684645659
 31
0.0
  0
LINE
  5
AD
330
1F
100
AcDbEntity
  8
1
  6
Continuous
 62
     2
100
AcDbLine
 10
114.6156870752353
 20
-91.26483684645659
 30
0.0
 11
114.6156870752353
 21
-87.76483684645659
 31
0.0
  0
LINE
  5
AE
330
1F
100
AcDbEntity
  8
1
  6
Continuous
 62
     7
100
AcDbLine
 10
114.6156870752353
 20
-91.26483684645659
 30
0.0
 11
115.1156870752353
 21
-91.26483684645659
 31
0.0
  0
LINE
  5
AF
330
1F
100
AcDbEntity
  8
1
  6
Continuous
 62
     7
100
AcDbLine
 10
115.1156870752353
 20
-91.26483684645659
 30
0.0
 11
115.1156870752353
 21
-91.26504359838401
 31
0.0
  0
LINE
  5
B0
330
1F
100
AcDbEntity
  8
1
  6
Continuous
 62
     7
100
AcDbLine
 10
114.5776140609848
 20
-91.26483684645659
 30
0.0
 11
114.6156870752353
 21
-91.26483684645659
 31
0.0
  0
LINE
  5
B1
330
1F
100
AcDbEntity
  8
1
  6
Continuous
 62
     7
100
AcDbLine
 10
115.1156870752353
 20
-90.72956066604652
 30
0.0
 11
115.1156870752353
 21
-91.26483684645659
 31
0.0
  0
LINE
  5
B2
330
1F
100
AcDbEntity
  8
1
  6
Continuous
 62
     2
100
AcDbLine
 10
170.029390302273
 20
-98.2561706563961
 30
0.0
 11
170.1656869971167
 21
-98.76483684645662
 31
0.0
  0
LINE
  5
B3
330
1F
100
AcDbEntity
  8
1
  6
Continuous
 62
     2
100
AcDbLine
 10
170.1656869971167
 20
-99.29144683680617
 30
0.0
 11
170.1656869971167
 21
-98.76483684645662
 31
0.0
  0
LINE
  5
B4
330
1F
100
AcDbEntity
  8
1
  6
DOT_CENTER
 62
     2
100
AcDbLine
 10
91.11568707523533
 20
-71.26483723704986
 30
0.0
 11
91.11568707523533
 21
-78.06483723704986
 31
0.0
  0
LINE
  5
B5
330
1F
100
AcDbEntity
  8
1
  6
DOT_CENTER
 62
     2
100
AcDbLine
 10
106.1156870752353
 20
-71.26483723704986
 30
0.0
 11
106.1156870752353
 21
-78.06483723704986
 31
0.0
  0
LINE
  5
B6
330
1F
100
AcDbEntity
  8
1
  6
DOT_CENTER
 62
     2
100
AcDbLine
 10
87.30068707523533
 20
-74.66483723704987
 30
0.0
 11
109.9306870752353
 21
-74.66483723704987
 31
0.0
  0
LINE
  5
B7
330
1F
100
AcDbEntity
  8
1
  6
DOT_CENTER
 62
     2
100
AcDbLine
 10
98.61568707523533
 20
-65.26483723704986
 30
0.0
 11
98.61568707523533
 21
-84.06483723704986
 31
0.0
  0
LINE
  5
B8
330
1F
100
AcDbEntity
  8
1
  6
DOT_CENTER
 62
     2
100
AcDbLine
 10
165.7156869971167
 20
-101.9548368464566
 30
0.0
 11
165.7156869971167
 21
-110.5748368464566
 31
0.0
  0
LINE
  5
B9
330
1F
100
AcDbEntity
  8
1
  6
DOT_CENTER
 62
     2
100
AcDbLine
 10
170.0256869971167
 20
-106.2648368464566
 30
0.0
 11
161.4056869971167
 21
-106.2648368464566
 31
0.0
  0
LINE
  5
BA
330
1F
100
AcDbEntity
  8
1
  6
DOT_CENTER
 62
     2
100
AcDbLine
 10
88.61568707523533
 20
-75.18983723704986
 30
0.0
 11
88.61568707523533
 21
-81.93983723704986
 31
0.0
  0
LINE
  5
BB
330
1F
100
AcDbEntity
  8
1
  6
DOT_CENTER
 62
     2
100
AcDbLine
 10
91.99068707523533
 20
-78.56483723704986
 30
0.0
 11
85.24068707523533
 21
-78.56483723704986
 31
0.0
  0
LINE
  5
BC
330
1F
100
AcDbEntity
  8
1
  6
DOT_CENTER
 62
     2
100
AcDbLine
 10
103.6156870752353
 20
-75.18983723704986
 30
0.0
 11
103.6156870752353
 21
-81.93983723704986
 31
0.0
  0
LINE
  5
BD
330
1F
100
AcDbEntity
  8
1
  6
DOT_CENTER
 62
     2
100
AcDbLine
 10
106.9906870752353
 20
-78.56483723704986
 30
0.0
 11
100.2406870752353
 21
-78.56483723704986
 31
0.0
  0
LINE
  5
BE
330
1F
100
AcDbEntity
  8
1
  6
DOT_CENTER
 62
     2
100
AcDbLine
 10
108.6156870752353
 20
-75.18983723704986
 30
0.0
 11
108.6156870752353
 21
-81.93983723704986
 31
0.0
  0
LINE
  5
BF
330
1F
100
AcDbEntity
  8
1
  6
DOT_CENTER
 62
     2
100
AcDbLine
 10
111.9906870752353
 20
-78.56483723704986
 30
0.0
 11
105.2406870752353
 21
-78.56483723704986
 31
0.0
  0
LINE
  5
C0
330
1F
100
AcDbEntity
  8
1
  6
DOT_CENTER
 62
     2
100
AcDbLine
 10
93.61568707523533
 20
-67.38983723704986
 30
0.0
 11
93.61568707523533
 21
-74.13983723704986
 31
0.0
  0
LINE
  5
C1
330
1F
100
AcDbEntity
  8
1
  6
DOT_CENTER
 62
     2
100
AcDbLine
 10
96.99068707523533
 20
-70.76483723704986
 30
0.0
 11
90.24068707523533
 21
-70.76483723704986
 31
0.0
  0
LINE
  5
C2
330
1F
100
AcDbEntity
  8
1
  6
DOT_CENTER
 62
     2
100
AcDbLine
 10
108.6156870752353
 20
-67.38983723704986
 30
0.0
 11
108.6156870752353
 21
-74.13983723704986
 31
0.0
  0
LINE
  5
C3
330
1F
100
AcDbEntity
  8
1
  6
DOT_CENTER
 62
     2
100
AcDbLine
 10
111.9906870752353
 20
-70.76483723704986
 30
0.0
 11
105.2406870752353
 21
-70.76483723704986
 31
0.0
  0
LINE
  5
C4
330
1F
100
AcDbEntity
  8
0
  6
Continuous
 62
     7
100
AcDbLine
 10
114.6156575392457
 20
-87.76483684645659
 30
0.0
 11
114.1156870752353
 21
-87.76483684645659
 31
0.0
  0
LINE
  5
C5
330
1F
100
AcDbEntity
  8
0
  6
Continuous
 62
     7
100
AcDbLine
 10
114.5776140609848
 20
-91.26483684645659
 30
0.0
 11
114.6156870752353
 21
-91.26483684645659
 31
0.0
  0
LINE
  5
C6
330
1F
100
AcDbEntity
  8
0
  6
Continuous
 62
     7
100
AcDbLine
 10
115.0776435969745
 20
-91.26483684645659
 30
0.0
 11
115.0776458441453
 21
-91.2646301067417
 31
0.0
  0
LINE
  5
C7
330
1F
100
AcDbEntity
  8
0
  6
Continuous
 62
     7
100
AcDbLine
 10
114.6156870752353
 20
-87.76483684645659
 30
0.0
 11
114.6156575392457
 21
-87.76483684645659
 31
0.0
  0
LINE
  5
C8
330
1F
100
AcDbEntity
  8
1
  6
Continuous
 62
     7
100
AcDbLine
 10
83.11568707523533
 20
-87.76483684645659
 30
0.0
 11
82.61580522617326
 21
-87.76483684645659
 31
0.0
  0
LINE
  5
C9
330
1F
100
AcDbEntity
  8
0
  6
Continuous
 62
     7
100
AcDbLine
 10
82.11580522617325
 20
-91.28678275324816
 30
0.0
 11
82.11580522617325
 21
-98.27790978683088
 31
0.0
  0
LINE
  5
CA
330
1F
100
AcDbEntity
  8
0
  6
Continuous
 62
     7
100
AcDbLine
 10
170.029390302273
 20
-98.2561706563961
 30
0.0
 11
168.0126412336147
 21
-90.7295606660465
 31
0.0
  0
LINE
  5
CB
330
1F
100
AcDbEntity
  8
0
  6
Continuous
 62
     2
100
AcDbLine
 10
157.2156869971167
 20
-85.76483684645659
 30
0.0
 11
159.2156869971167
 21
-85.76483684645659
 31
0.0
  0
LINE
  5
CC
330
1F
100
AcDbEntity
  8
0
  6
Continuous
 62
     7
100
AcDbLine
 10
170.1656869971167
 20
-99.29144683680617
 30
0.0
 11
170.1656869971167
 21
-109.7648368464566
 31
0.0
  0
LINE
  5
CD
330
1F
100
AcDbEntity
  8
0
  6
Continuous
 62
     7
100
AcDbLine
 10
169.1656869971167
 20
-110.7648368464566
 30
0.0
 11
162.2656869971167
 21
-110.7648368464566
 31
0.0
  0
LINE
  5
CE
330
1F
100
AcDbEntity
  8
0
  6
Continuous
 62
     7
100
AcDbLine
 10
157.2156869971167
 20
-87.76483684645659
 30
0.0
 11
159.2156869971167
 21
-87.76483684645659
 31
0.0
  0
LINE
  5
CF
330
1F
100
AcDbEntity
  8
0
  6
Continuous
 62
     7
100
AcDbLine
 10
157.2156869971167
 20
-87.76483684645659
 30
0.0
 11
157.2156869971167
 21
-91.26483684645659
 31
0.0
  0
LINE
  5
D0
330
1F
100
AcDbEntity
  8
0
  6
Continuous
 62
     7
100
AcDbLine
 10
159.7156869971167
 20
-87.76483684645659
 30
0.0
 11
164.1489379284585
 21
-87.76483684645659
 31
0.0
  0
LINE
  5
D1
330
1F
100
AcDbEntity
  8
0
  6
Continuous
 62
     7
100
AcDbLine
 10
159.2156869971167
 20
-87.76483684645659
 30
0.0
 11
159.7156869971167
 21
-87.76483684645659
 31
0.0
  0
LINE
  5
D2
330
1F
100
AcDbEntity
  8
0
  6
Continuous
 62
     2
100
AcDbLine
 10
159.7156869971167
 20
-87.76483684645659
 30
0.0
 11
159.7156869971167
 21
-91.26483684645659
 31
0.0
  0
LINE
  5
D3
330
1F
100
AcDbEntity
  8
0
  6
Continuous
 62
     7
100
AcDbLine
 10
159.7156869971167
 20
-91.26483684645659
 30
0.0
 11
157.2156869971167
 21
-91.26483684645659
 31
0.0
  0
LINE
  5
D4
330
1F
100
AcDbEntity
  8
0
  6
Continuous
 62
     7
100
AcDbLine
 10
159.2156869971167
 20
-87.76483684645659
 30
0.0
 11
159.2156869971167
 21
-85.76483684645659
 31
0.0
  0
LINE
  5
D5
330
1F
100
AcDbEntity
  8
0
  6
Continuous
 62
     7
100
AcDbLine
 10
159.7156869971167
 20
-91.26483684645659
 30
0.0
 11
160.7656869971167
 21
-91.26483684645659
 31
0.0
  0
LINE
  5
D6
330
1F
100
AcDbEntity
  8
0
  6
Continuous
 62
     7
100
AcDbLine
 10
161.2656869971167
 20
-91.76483684645659
 30
0.0
 11
161.2656869971167
 21
-109.7648368464566
 31
0.0
  0
LINE
  5
D7
330
1F
100
AcDbEntity
  8
0
  6
Continuous
 62
     7
100
AcDbLine
 10
159.2156869971167
 20
-70.26483723704986
 30
0.0
 11
159.2156869971167
 21
-67.26483723704986
 31
0.0
  0
LINE
  5
D8
330
1F
100
AcDbEntity
  8
0
  6
Continuous
 62
     7
100
AcDbLine
 10
159.2156869971167
 20
-70.26483723704986
 30
0.0
 11
159.2156869971167
 21
-85.76483684645659
 31
0.0
  0
LINE
  5
D9
330
1F
100
AcDbEntity
  8
0
  6
Continuous
 62
     7
100
AcDbLine
 10
157.2156869971167
 20
-87.76483684645659
 30
0.0
 11
157.2156869971167
 21
-85.76483684645659
 31
0.0
  0
LINE
  5
DA
330
1F
100
AcDbEntity
  8
0
  6
Continuous
 62
     7
100
AcDbLine
 10
157.2156869971167
 20
-70.26483723704986
 30
0.0
 11
157.2156869971167
 21
-85.76483684645659
 31
0.0
  0
LINE
  5
DB
330
1F
100
AcDbEntity
  8
0
  6
Continuous
 62
     7
100
AcDbLine
 10
157.2156869971167
 20
-70.26483723704986
 30
0.0
 11
157.2156869971167
 21
-67.26483723704986
 31
0.0
  0
LINE
  5
DC
330
1F
100
AcDbEntity
  8
0
  6
Continuous
 62
     2
100
AcDbLine
 10
159.2156869971167
 20
-70.26483723704986
 30
0.0
 11
157.2156869971167
 21
-70.26483723704986
 31
0.0
  0
LINE
  5
DD
330
1F
100
AcDbEntity
  8
0
  6
Continuous
 62
     7
100
AcDbLine
 10
159.2156869971167
 20
-67.26483723704986
 30
0.0
 11
157.2156869971167
 21
-67.26483723704986
 31
0.0
  0
LINE
  5
DE
330
1F
100
AcDbEntity
  8
0
  6
Continuous
 62
     7
100
AcDbLine
 10
115.1156870752353
 20
-98.25617065639608
 30
0.0
 11
115.1156870752353
 21
-99.29144683680619
 31
0.0
  0
LINE
  5
DF
330
1F
100
AcDbEntity
  8
0
  6
Continuous
 62
     7
100
AcDbLine
 10
82.11580522617325
 20
-98.27790978683088
 30
0.0
 11
82.11580522617326
 21
-99.31318596724094
 31
0.0
  0
LINE
  5
E0
330
1F
100
AcDbEntity
  8
0
  6
Continuous
 62
     7
100
AcDbLine
 10
117.1156870752353
 20
-98.25617065639608
 30
0.0
 11
117.1156870752353
 21
-99.29144683680616
 31
0.0
  0
LINE
  5
E1
330
1F
100
AcDbEntity
  8
0
  6
Continuous
 62
     7
100
AcDbLine
 10
112.1156870752353
 20
-91.26483684645659
 30
0.0
 11
114.5776140609848
 21
-91.26483684645659
 31
0.0
  0
LINE
  5
E2
330
1F
100
AcDbEntity
  8
0
  6
Continuous
 62
     2
100
AcDbLine
 10
115.1156870752353
 20
-98.25617065639608
 30
0.0
 11
117.1156870752353
 21
-98.25617065639608
 31
0.0
  0
LINE
  5
E3
330
1F
100
AcDbEntity
  8
0
  6
Continuous
 62
     7
100
AcDbLine
 10
115.1156870752353
 20
-98.25617065639608
 30
0.0
 11
115.1156870752353
 21
-91.26504359838401
 31
0.0
  0
LINE
  5
E4
330
1F
100
AcDbEntity
  8
0
  6
Continuous
 62
     7
100
AcDbLine
 10
82.11580522617324
 20
-90.75129979648129
 30
0.0
 11
82.11580522617325
 21
-91.26483684645659
 31
0.0
  0
LINE
  5
E5
330
1F
100
AcDbEntity
  8
0
  6
Continuous
 62
     7
100
AcDbLine
 10
82.15373055349619
 20
-91.26463008231522
 30
0.0
 11
82.15373280106529
 21
-91.26483684645659
 31
0.0
  0
LINE
  5
E6
330
1F
100
AcDbEntity
  8
0
  6
Continuous
 62
     7
100
AcDbLine
 10
117.1156870752353
 20
-98.25617065639608
 30
0.0
 11
117.1156870752353
 21
-90.7295606660465
 31
0.0
  0
LINE
  5
E7
330
1F
100
AcDbEntity
  8
0
  6
Continuous
 62
     7
100
AcDbLine
 10
109.1156870752353
 20
-67.26483723704986
 30
0.0
 11
88.11568707523533
 21
-67.26483723704986
 31
0.0
  0
LINE
  5
E8
330
1F
100
AcDbEntity
  8
0
  6
Continuous
 62
     7
100
AcDbLine
 10
112.1156870752353
 20
-85.76483684645659
 30
0.0
 11
112.1156870752353
 21
-70.26483723704986
 31
0.0
  0
LINE
  5
E9
330
1F
100
AcDbEntity
  8
0
  6
Continuous
 62
     7
100
AcDbLine
 10
85.11568707523533
 20
-70.26483723704986
 30
0.0
 11
85.11568707523533
 21
-85.76483684645659
 31
0.0
  0
LINE
  5
EA
330
1F
100
AcDbEntity
  8
0
  6
Continuous
 62
     7
100
AcDbLine
 10
89.11568707523533
 20
-84.06483723704986
 30
0.0
 11
89.11568707523533
 21
-87.26483684645659
 31
0.0
  0
LINE
  5
EB
330
1F
100
AcDbEntity
  8
0
  6
Continuous
 62
     7
100
AcDbLine
 10
108.1156870752353
 20
-87.26483684645659
 30
0.0
 11
108.1156870752353
 21
-84.06483723704986
 31
0.0
  0
LINE
  5
EC
330
1F
100
AcDbEntity
  8
0
  6
Continuous
 62
     7
100
AcDbLine
 10
91.11568707523533
 20
-82.06483723704986
 30
0.0
 11
106.1156870752353
 21
-82.06483723704986
 31
0.0
  0
LINE
  5
ED
330
1F
100
AcDbEntity
  8
0
  6
Continuous
 62
     7
100
AcDbLine
 10
80.11580522617325
 20
-98.27790978683085
 30
0.0
 11
80.11580522617325
 21
-99.31318596724094
 31
0.0
  0
LINE
  5
EE
330
1F
100
AcDbEntity
  8
0
  6
Continuous
 62
     7
100
AcDbLine
 10
80.11580522617325
 20
-99.31318596724094
 30
0.0
 11
80.11580522617324
 21
-109.7865759768914
 31
0.0
  0
LINE
  5
EF
330
1F
100
AcDbEntity
  8
0
  6
Continuous
 62
     7
100
AcDbLine
 10
80.11580522617324
 20
-109.7865759768914
 30
0.0
 11
80.11580522617324
 21
-110.7865759768914
 31
0.0
  0
LINE
  5
F0
330
1F
100
AcDbEntity
  8
0
  6
Continuous
 62
     7
100
AcDbLine
 10
82.11580522617325
 20
-109.7865759768914
 30
0.0
 11
82.11580522617325
 21
-110.7865759768914
 31
0.0
  0
LINE
  5
F1
330
1F
100
AcDbEntity
  8
0
  6
Continuous
 62
     7
100
AcDbLine
 10
80.11580522617324
 20
-110.7865759768914
 30
0.0
 11
82.11580522617325
 21
-110.7865759768914
 31
0.0
  0
LINE
  5
F2
330
1F
100
AcDbEntity
  8
0
  6
Continuous
 62
     7
100
AcDbLine
 10
117.1156870752353
 20
-110.7648368464566
 30
0.0
 11
117.1156870752353
 21
-109.7648368464566
 31
0.0
  0
LINE
  5
F3
330
1F
100
AcDbEntity
  8
0
  6
Continuous
 62
     7
100
AcDbLine
 10
115.1156870752353
 20
-110.7648368464566
 30
0.0
 11
115.1156870752353
 21
-109.7648368464566
 31
0.0
  0
LINE
  5
F4
330
1F
100
AcDbEntity
  8
0
  6
Continuous
 62
     2
100
AcDbLine
 10
80.11580522617324
 20
-109.7865759768914
 30
0.0
 11
82.11580522617325
 21
-109.7865759768914
 31
0.0
  0
LINE
  5
F5
330
1F
100
AcDbEntity
  8
0
  6
Continuous
 62
     2
100
AcDbLine
 10
117.1156870752353
 20
-109.7648368464566
 30
0.0
 11
115.1156870752353
 21
-109.7648368464566
 31
0.0
  0
LINE
  5
F6
330
1F
100
AcDbEntity
  8
0
  6
Continuous
 62
     7
100
AcDbLine
 10
117.1156870752353
 20
-110.7648368464566
 30
0.0
 11
115.1156870752353
 21
-110.7648368464566
 31
0.0
  0
LINE
  5
F7
330
1F
100
AcDbEntity
  8
0
  6
Continuous
 62
     2
100
AcDbLine
 10
80.11580522617325
 20
-98.27790978683085
 30
0.0
 11
82.11580522617325
 21
-98.27790978683088
 31
0.0
  0
LINE
  5
F8
330
1F
100
AcDbEntity
  8
0
  6
Continuous
 62
     7
100
AcDbLine
 10
80.11580522617325
 20
-90.75129979648129
 30
0.0
 11
80.11580522617325
 21
-98.27790978683085
 31
0.0
  0
LINE
  5
F9
330
1F
100
AcDbEntity
  8
0
  6
Continuous
 62
     7
100
AcDbLine
 10
115.1156870752353
 20
-99.29144683680619
 30
0.0
 11
115.1156870752353
 21
-109.7648368464566
 31
0.0
  0
LINE
  5
FA
330
1F
100
AcDbEntity
  8
0
  6
Continuous
 62
     2
100
AcDbLine
 10
115.1156870752353
 20
-99.29144683680619
 30
0.0
 11
117.1156870752353
 21
-99.29144683680616
 31
0.0
  0
LINE
  5
FB
330
1F
100
AcDbEntity
  8
0
  6
Continuous
 62
     7
100
AcDbLine
 10
117.1156870752353
 20
-90.7295606660465
 30
0.0
 11
117.1156870752353
 21
-87.7648368464566
 31
0.0
  0
LINE
  5
FC
330
1F
100
AcDbEntity
  8
0
  6
Continuous
 62
     7
100
AcDbLine
 10
115.1156870752353
 20
-87.76483684645659
 30
0.0
 11
114.6156870752353
 21
-87.76483684645659
 31
0.0
  0
LINE
  5
FD
330
1F
100
AcDbEntity
  8
0
  6
Continuous
 62
     7
100
AcDbLine
 10
82.11580522617326
 20
-87.78657597689138
 30
0.0
 11
82.11580522617324
 21
-90.75129979648129
 31
0.0
  0
LINE
  5
FE
330
1F
100
AcDbEntity
  8
0
  6
Continuous
 62
     7
100
AcDbLine
 10
117.1156870752353
 20
-87.7648368464566
 30
0.0
 11
115.1156870752353
 21
-87.76483684645659
 31
0.0
  0
LINE
  5
FF
330
1F
100
AcDbEntity
  8
0
  6
Continuous
 62
     7
100
AcDbLine
 10
80.11580522617325
 20
-87.78657597689137
 30
0.0
 11
82.11580522617326
 21
-87.78657597689138
 31
0.0
  0
LINE
  5
100
330
1F
100
AcDbEntity
  8
0
  6
Continuous
 62
     2
100
AcDbLine
 10
117.1156870752353
 20
-90.7295606660465
 30
0.0
 11
115.1156870752353
 21
-90.72956066604652
 31
0.0
  0
LINE
  5
101
330
1F
100
AcDbEntity
  8
0
  6
Continuous
 62
     2
100
AcDbLine
 10
80.11580522617325
 20
-90.75129979648129
 30
0.0
 11
82.11580522617324
 21
-90.75129979648129
 31
0.0
  0
LINE
  5
102
330
1F
100
AcDbEntity
  8
0
  6
Continuous
 62
     7
100
AcDbLine
 10
80.11580522617325
 20
-87.78657597689137
 30
0.0
 11
80.11580522617325
 21
-90.75129979648129
 31
0.0
  0
LINE
  5
103
330
1F
100
AcDbEntity
  8
0
  6
Continuous
 62
     7
100
AcDbLine
 10
115.1156870752353
 20
-90.72956066604652
 30
0.0
 11
115.1156870752353
 21
-87.76483684645659
 31
0.0
  0
LINE
  5
104
330
1F
100
AcDbEntity
  8
0
  6
Continuous
 62
     2
100
AcDbLine
 10
80.11580522617325
 20
-99.31318596724094
 30
0.0
 11
82.11580522617326
 21
-99.31318596724094
 31
0.0
  0
LINE
  5
105
330
1F
100
AcDbEntity
  8
0
  6
Continuous
 62
     7
100
AcDbLine
 10
82.11580522617326
 20
-99.31318596724094
 30
0.0
 11
82.11580522617325
 21
-109.7865759768914
 31
0.0
  0
LINE
  5
106
330
1F
100
AcDbEntity
  8
1
  6
DOT_CENTER
 62
     2
100
AcDbLine
 10
78.31701033363291
 20
-106.3072222111503
 30
0.0
 11
84.31665588081914
 21
-106.242004819846
 31
0.0
  0
LINE
  5
107
330
1F
100
AcDbEntity
  8
0
  6
Continuous
 62
     7
100
AcDbLine
 10
117.1156870752353
 20
-109.7648368464566
 30
0.0
 11
117.1156870752353
 21
-99.29144683680616
 31
0.0
  0
LINE
  5
108
330
1F
100
AcDbEntity
  8
1
  6
DOT_CENTER
 62
     2
100
AcDbLine
 10
113.1156870752353
 20
-106.2648368464566
 30
0.0
 11
119.1156870752353
 21
-106.2648368464566
 31
0.0
  0
ARC
  5
109
330
1F
100
AcDbEntity
  8
1
  6
Continuous
 62
     2
100
AcDbCircle
 10
93.61568707523533
 20
-70.76483723704986
 30
0.0
 40
1.5
100
AcDbArc
 50
0.0
 51
270.0
  0
ARC
  5
10A
330
1F
100
AcDbEntity
  8
1
  6
Continuous
 62
     2
100
AcDbCircle
 10
108.6156870752353
 20
-70.76483723704986
 30
0.0
 40
1.5
100
AcDbArc
 50
0.0
 51
270.0
  0
ARC
  5
10B
330
1F
100
AcDbEntity
  8
1
  6
Continuous
 62
     2
100
AcDbCircle
 10
108.6156870752353
 20
-78.56483723704986
 30
0.0
 40
1.5
100
AcDbArc
 50
0.0
 51
270.0
  0
ARC
  5
10C
330
1F
100
AcDbEntity
  8
1
  6
Continuous
 62
     2
100
AcDbCircle
 10
103.6156870752353
 20
-78.56483723704986
 30
0.0
 40
1.5
100
AcDbArc
 50
0.0
 51
270.0
  0
ARC
  5
10D
330
1F
100
AcDbEntity
  8
1
  6
Continuous
 62
     2
100
AcDbCircle
 10
88.61568707523533
 20
-78.56483723704986
 30
0.0
 40
1.5
100
AcDbArc
 50
0.0
 51
270.0
  0
ARC
  5
10E
330
1F
100
AcDbEntity
  8
1
  6
Continuous
 62
     2
100
AcDbCircle
 10
91.11568707523533
 20
-74.66483723704987
 30
0.0
 40
2.000000000000227
100
AcDbArc
 50
0.0
 51
270.0000000000065
  0
ARC
  5
10F
330
1F
100
AcDbEntity
  8
1
  6
Continuous
 62
     2
100
AcDbCircle
 10
98.61568707523533
 20
-74.66483723704987
 30
0.0
 40
2.00000000000027
100
AcDbArc
 50
0.0
 51
270.0000000000065
  0
ARC
  5
110
330
1F
100
AcDbEntity
  8
1
  6
Continuous
 62
     2
100
AcDbCircle
 10
106.1156870752353
 20
-74.66483723704987
 30
0.0
 40
2.000000000000298
100
AcDbArc
 50
0.0
 51
270.0000000000085
  0
ARC
  5
111
330
1F
100
AcDbEntity
  8
0
  6
Continuous
 62
     7
100
AcDbCircle
 10
166.1656869971167
 20
-99.29144683680617
 30
0.0
 40
4.0
100
AcDbArc
 50
0.0
 51
14.99999999999988
  0
ARC
  5
112
330
1F
100
AcDbEntity
  8
0
  6
Continuous
 62
     7
100
AcDbCircle
 10
169.1656869971167
 20
-109.7648368464566
 30
0.0
 40
1.0
100
AcDbArc
 50
270.0
 51
0.0
  0
ARC
  5
113
330
1F
100
AcDbEntity
  8
0
  6
Continuous
 62
     7
100
AcDbCircle
 10
164.1489379284585
 20
-91.76483684645659
 30
0.0
 40
3.999999999999911
100
AcDbArc
 50
15.0000000000005
 51
90.0
  0
ARC
  5
114
330
1F
100
AcDbEntity
  8
0
  6
Continuous
 62
     7
100
AcDbCircle
 10
162.2656869971167
 20
-109.7648368464566
 30
0.0
 40
1.0
100
AcDbArc
 50
180.0
 51
270.0
  0
ARC
  5
115
330
1F
100
AcDbEntity
  8
0
  6
Continuous
 62
     7
100
AcDbCircle
 10
160.7656869971167
 20
-91.76483684645659
 30
0.0
 40
0.5
100
AcDbArc
 50
0.0
 51
90.0
  0
ARC
  5
116
330
1F
100
AcDbEntity
  8
0
  6
Continuous
 62
     7
100
AcDbCircle
 10
88.11568707523533
 20
-70.26483723704986
 30
0.0
 40
3.0
100
AcDbArc
 50
90.0
 51
180.0
  0
ARC
  5
117
330
1F
100
AcDbEntity
  8
0
  6
Continuous
 62
     7
100
AcDbCircle
 10
91.11568707523533
 20
-84.06483723704986
 30
0.0
 40
2.0
100
AcDbArc
 50
90.0
 51
180.0
  0
ARC
  5
118
330
1F
100
AcDbEntity
  8
0
  6
Continuous
 62
     7
100
AcDbCircle
 10
106.1156870752353
 20
-84.06483723704986
 30
0.0
 40
2.0
100
AcDbArc
 50
0.0
 51
90.0
  0
ARC
  5
119
330
1F
100
AcDbEntity
  8
0
  6
Continuous
 62
     7
100
AcDbCircle
 10
109.1156870752353
 20
-70.26483723704986
 30
0.0
 40
3.0
100
AcDbArc
 50
0.0
 51
90.0
  0
ARC
  5
11A
330
1F
100
AcDbEntity
  8
0
  6
Continuous
 62
     7
100
AcDbCircle
 10
114.1156870752353
 20
-85.76483684645659
 30
0.0
 40
2.0
100
AcDbArc
 50
180.0
 51
270.0
  0
ARC
  5
11B
330
1F
100
AcDbEntity
  8
0
  6
Continuous
 62
     7
100
AcDbCircle
 10
83.11568707523533
 20
-85.76483684645659
 30
0.0
 40
2.0
100
AcDbArc
 50
270.0
 51
0.0
  0
ARC
  5
11C
330
1F
100
AcDbEntity
  8
0
  6
Continuous
 62
     7
100
AcDbCircle
 10
85.11568707523533
 20
-87.26483684645659
 30
0.0
 40
4.0
100
AcDbArc
 50
270.0
 51
0.0
  0
ARC
  5
11D
330
1F
100
AcDbEntity
  8
0
  6
Continuous
 62
     7
100
AcDbCircle
 10
112.1156870752353
 20
-87.26483684645659
 30
0.0
 40
4.0
100
AcDbArc
 50
180.0
 51
270.0
  0
CIRCLE
  5
11E
330
1F
100
AcDbEntity
  8
0
  6
Continuous
 62
     7
100
AcDbCircle
 10
165.7156869971167
 20
-106.2648368464566
 30
0.0
 40
2.099999999999994
  0
CIRCLE
  5
11F
330
1F
100
AcDbEntity
  8
0
  6
Continuous
 62
     7
100
AcDbCircle
 10
91.11568707523533
 20
-74.66483723704987
 30
0.0
 40
1.650000000000006
  0
CIRCLE
  5
120
330
1F
100
AcDbEntity
  8
0
  6
Continuous
 62
     7
100
AcDbCircle
 10
106.1156870752353
 20
-74.66483723704987
 30
0.0
 40
1.650000000000006
  0
CIRCLE
  5
121
330
1F
100
AcDbEntity
  8
0
  6
Continuous
 62
     7
100
AcDbCircle
 10
108.6156870752353
 20
-70.76483723704986
 30
0.0
 40
1.25
  0
CIRCLE
  5
122
330
1F
100
AcDbEntity
  8
0
  6
Continuous
 62
     7
100
AcDbCircle
 10
108.6156870752353
 20
-78.56483723704986
 30
0.0
 40
1.25
  0
CIRCLE
  5
123
330
1F
100
AcDbEntity
  8
0
  6
Continuous
 62
     7
100
AcDbCircle
 10
88.61568707523533
 20
-78.56483723704986
 30
0.0
 40
1.25
  0
CIRCLE
  5
124
330
1F
100
AcDbEntity
  8
0
  6
Continuous
 62
     7
100
AcDbCircle
 10
103.6156870752353
 20
-78.56483723704986
 30
0.0
 40
1.25
  0
CIRCLE
  5
125
330
1F
100
AcDbEntity
  8
0
  6
Continuous
 62
     7
100
AcDbCircle
 10
98.61568707523533
 20
-74.66483723704987
 30
0.0
 40
1.650000000000006
  0
CIRCLE
  5
126
330
1F
100
AcDbEntity
  8
0
  6
Continuous
 62
     7
100
AcDbCircle
 10
93.61568707523533
 20
-70.76483723704986
 30
0.0
 40
1.25
  0
DIMENSION
  5
132
330
1F
100
AcDbEntity
  8
1
100
AcDbDimension
  2
*D3
 10
82.11580522617325
 20
-117.797021681637
 30
0.0
 11
98.6157461507043
 21
-116.047021681637
 31
0.0
 70
    32
  1
<>
 71
     5
 42
-1.0
 53
0.00013888888889
  3
ME10_DIM_10
100
AcDbAlignedDimension
 13
115.1156870752353
 23
-110.7648368464566
 33
0.0
 14
82.11580522617325
 24
-110.7865759768914
 34
0.0
100
AcDbRotatedDimension
  0
DIMENSION
  5
13D
330
1F
100
AcDbEntity
  8
1
100
AcDbDimension
  2
*D4
 10
88.61568707523533
 20
-95.5348957222282
 30
0.0
 11
98.61568707523531
 21
-93.7848957222282
 31
0.0
 70
    32
  1
<>
 71
     5
 42
-1.0
 53
0.00013888888889
  3
ME10_DIM_11
100
AcDbAlignedDimension
 13
108.6156870752353
 23
-81.93983723704986
 33
0.0
 14
88.61568707523533
 24
-81.93983723704986
 34
0.0
100
AcDbRotatedDimension
  0
DIMENSION
  5
148
330
1F
100
AcDbEntity
  8
1
100
AcDbDimension
  2
*D5
 10
124.376066125627
 20
-67.26483723704986
 30
0.0
 11
122.551066125627
 21
-74.66483723704985
 31
0.0
 70
    32
  1
<>
 71
     5
 42
-1.0
 53
90.0
  3
ME10_DIM_12
100
AcDbAlignedDimension
 13
106.1156870752353
 23
-82.06483723704986
 33
0.0
 14
109.1156870752353
 24
-67.26483723704986
 34
0.0
 50
90.0
100
AcDbRotatedDimension
  0
DIMENSION
  5
153
330
1F
100
AcDbEntity
  8
1
100
AcDbDimension
  2
*D6
 10
159.2156869971167
 20
-61.95461965762718
 30
0.0
 11
162.4656869971167
 21
-60.12961965762719
 31
0.0
 70
    32
  1
<>
 71
     5
 42
-1.0
 53
0.00013888888889
  3
ME10_DIM_13
100
AcDbAlignedDimension
 13
165.7156869971167
 23
-101.9548368464566
 33
0.0
 14
159.2156869971167
 24
-67.26483723704986
 34
0.0
100
AcDbRotatedDimension
  0
DIMENSION
  5
15E
330
1F
100
AcDbEntity
  8
1
100
AcDbDimension
  2
*D7
 10
148.559776729414
 20
-110.7648368464566
 30
0.0
 11
146.734776729414
 21
-89.01483704175322
 31
0.0
 70
    32
  1
<>
 71
     5
 42
-1.0
 53
90.0
  3
ME10_DIM_14
100
AcDbAlignedDimension
 13
157.2156869971167
 23
-67.26483723704986
 33
0.0
 14
162.2656869971167
 24
-110.7648368464566
 34
0.0
 50
90.0
100
AcDbRotatedDimension
  0
DIMENSION
  5
169
330
1F
100
AcDbEntity
  8
1
100
AcDbDimension
  2
*D8
 10
108.6156870752353
 20
-60.9547545931959
 30
0.0
 11
101.1156870752353
 21
-59.2047545931959
 31
0.0
 70
    32
  1
<>
 71
     5
 42
-1.0
 53
0.00013888888889
  3
ME10_DIM_15
100
AcDbAlignedDimension
 13
93.61568707523533
 23
-67.38983723704986
 33
0.0
 14
108.6156870752353
 24
-67.38983723704986
 34
0.0
100
AcDbRotatedDimension
  0
DIMENSION
  5
174
330
1F
100
AcDbEntity
  8
1
100
AcDbDimension
  2
*D9
 10
74.425082383414
 20
-110.7865759768914
 30
0.0
 11
72.675082383414
 21
-99.28657597689138
 31
0.0
 70
    32
  1
<>
 71
     5
 42
-1.0
 53
90.0
  3
ME10_DIM_16
100
AcDbAlignedDimension
 13
80.11580522617325
 23
-87.78657597689137
 33
0.0
 14
80.11580522617324
 24
-110.7865759768914
 34
0.0
 50
90.0
100
AcDbRotatedDimension
  0
DIMENSION
  5
180
330
1F
100
AcDbEntity
  8
1
100
AcDbDimension
  2
*D10
 10
161.2656869971167
 20
-117.016649754486
 30
0.0
 11
165.7156869971167
 21
-115.191649754486
 31
0.0
 70
    32
  1
<>
 71
     5
 42
-1.0
 53
0.00013888888889
  3
ME10_DIM_17
100
AcDbAlignedDimension
 13
170.1656869971167
 23
-109.7648368464566
 33
0.0
 14
161.2656869971167
 24
-109.7648368464566
 34
0.0
100
AcDbRotatedDimension
  0
INSERT
  5
189
330
1F
100
AcDbEntity
  8
1
100
AcDbBlockReference
  2
*D11
 10
0.0
 20
0.0
 30
0.0
  0
INSERT
  5
192
330
1F
100
AcDbEntity
  8
1
100
AcDbBlockReference
  2
*D12
 10
0.0
 20
0.0
 30
0.0
  0
INSERT
  5
19B
330
1F
100
AcDbEntity
  8
1
100
AcDbBlockReference
  2
*D13
 10
0.0
 20
0.0
 30
0.0
  0
ENDSEC
  0
SECTION
  2
OBJECTS
  0
DICTIONARY
  5
C
330
0
100
AcDbDictionary
281
     1
  3
ACAD_GROUP
350
D
  3
ACAD_LAYOUT
350
1A
  3
ACAD_MATERIAL
350
3B
  3
ACAD_MLEADERSTYLE
350
19E
  3
ACAD_MLINESTYLE
350
17
  3
ACAD_PLOTSETTINGS
350
19
  3
ACAD_PLOTSTYLENAME
350
E
  3
ACAD_VISUALSTYLE
350
2A
  3
AcDbVariableDictionary
350
19C
  0
DICTIONARY
  5
D
102
{ACAD_REACTORS
330
C
102
}
330
C
100
AcDbDictionary
281
     1
  0
DICTIONARY
  5
1A
102
{ACAD_REACTORS
330
C
102
}
330
C
100
AcDbDictionary
281
     1
  3
Layout1
350
1E
  3
Layout2
350
26
  3
Model
350
22
  0
DICTIONARY
  5
3B
102
{ACAD_REACTORS
330
C
102
}
330
C
100
AcDbDictionary
281
     1
  3
ByBlock
350
3D
  3
ByLayer
350
3C
  3
Global
350
3E
  0
DICTIONARY
  5
19E
102
{ACAD_REACTORS
330
C
102
}
330
C
100
AcDbDictionary
281
     1
  0
DICTIONARY
  5
17
102
{ACAD_REACTORS
330
C
102
}
330
C
100
AcDbDictionary
281
     1
  3
Standard
350
18
  0
DICTIONARY
  5
19
102
{ACAD_REACTORS
330
C
102
}
330
C
100
AcDbDictionary
281
     1
  0
ACDBDICTIONARYWDFLT
  5
E
102
{ACAD_REACTORS
330
C
102
}
330
C
100
AcDbDictionary
281
     1
  3
Normal
350
F
100
AcDbDictionaryWithDefault
340
F
  0
DICTIONARY
  5
2A
102
{ACAD_REACTORS
330
C
102
}
330
C
100
AcDbDictionary
281
     1
  3
2dWireframe
350
2F
  3
3D Hidden
350
31
  3
3dWireframe
350
30
  3
Basic
350
32
  3
Brighten
350
36
  3
ColorChange
350
3A
  3
Conceptual
350
34
  3
Dim
350
35
  3
Facepattern
350
39
  3
Flat
350
2B
  3
FlatWithEdges
350
2C
  3
Gouraud
350
2D
  3
GouraudWithEdges
350
2E
  3
Linepattern
350
38
  3
Realistic
350
33
  3
Thicken
350
37
  0
DICTIONARY
  5
19C
102
{ACAD_REACTORS
330
C
102
}
330
C
100
AcDbDictionary
281
     1
  3
DIMASSOC
350
19F
  3
HIDETEXT
350
1A0
  0
LAYOUT
  5
1E
102
{ACAD_REACTORS
330
1A
102
}
330
1A
100
AcDbPlotSettings
  1

  2
none_device
  4

  6

 40
0.0
 41
0.0
 42
0.0
 43
0.0
 44
0.0
 45
0.0
 46
0.0
 47
0.0
 48
0.0
 49
0.0
140
0.0
141
0.0
142
1.0
143
1.0
 70
   688
 72
     0
 73
     0
 74
     5
  7

 75
    16
147
1.0
148
0.0
149
0.0
100
AcDbLayout
  1
Layout1
 70
     1
 71
     1
 10
0.0
 20
0.0
 11
12.0
 21
9.0
 12
0.0
 22
0.0
 32
0.0
 14
1.00000000000000E+20
 24
1.00000000000000E+20
 34
1.00000000000000E+20
 15
-1.00000000000000E+20
 25
-1.00000000000000E+20
 35
-1.00000000000000E+20
146
0.0
 13
0.0
 23
0.0
 33
0.0
 16
1.0
 26
0.0
 36
0.0
 17
0.0
 27
1.0
 37
0.0
 76
     0
330
1B
  0
LAYOUT
  5
26
102
{ACAD_REACTORS
330
1A
102
}
330
1A
100
AcDbPlotSettings
  1

  2
none_device
  4

  6

 40
0.0
 41
0.0
 42
0.0
 43
0.0
 44
0.0
 45
0.0
 46
0.0
 47
0.0
 48
0.0
 49
0.0
140
0.0
141
0.0
142
1.0
143
1.0
 70
   688
 72
     0
 73
     0
 74
     5
  7

 75
    16
147
1.0
148
0.0
149
0.0
100
AcDbLayout
  1
Layout2
 70
     1
 71
     2
 10
0.0
 20
0.0
 11
0.0
 21
0.0
 12
0.0
 22
0.0
 32
0.0
 14
0.0
 24
0.0
 34
0.0
 15
0.0
 25
0.0
 35
0.0
146
0.0
 13
0.0
 23
0.0
 33
0.0
 16
1.0
 26
0.0
 36
0.0
 17
0.0
 27
1.0
 37
0.0
 76
     0
330
23
  0
LAYOUT
  5
22
102
{ACAD_REACTORS
330
1A
102
}
330
1A
100
AcDbPlotSettings
  1

  2
none_device
  4

  6

 40
0.0
 41
0.0
 42
0.0
 43
0.0
 44
0.0
 45
0.0
 46
0.0
 47
0.0
 48
0.0
 49
0.0
140
0.0
141
0.0
142
1.0
143
1.0
 70
  1712
 72
     0
 73
     0
 74
     0
  7

 75
     0
147
1.0
148
0.0
149
0.0
100
AcDbLayout
  1
Model
 70
     1
 71
     0
 10
0.0
 20
0.0
 11
12.0
 21
9.0
 12
0.0
 22
0.0
 32
0.0
 14
56.12826987438495
 24
-145.873227375454
 34
0.0
 15
204.628269874385
 25
-40.87322737545395
 35
0.0
146
0.0
 13
0.0
 23
0.0
 33
0.0
 16
1.0
 26
0.0
 36
0.0
 17
0.0
 27
1.0
 37
0.0
 76
     0
330
1F
331
29
  0
MATERIAL
  5
3D
102
{ACAD_REACTORS
330
3B
102
}
102
{ACAD_XDICTIONARY
360
1C3
102
}
330
3B
100
AcDbMaterial
  1
ByBlock
  0
MATERIAL
  5
3C
102
{ACAD_REACTORS
330
3B
102
}
102
{ACAD_XDICTIONARY
360
1C1
102
}
330
3B
100
AcDbMaterial
  1
ByLayer
  0
MATERIAL
  5
3E
102
{ACAD_REACTORS
330
3B
102
}
102
{ACAD_XDICTIONARY
360
1C5
102
}
330
3B
100
AcDbMaterial
  1
Global
  0
MLINESTYLE
  5
18
102
{ACAD_REACTORS
330
17
102
}
330
17
100
AcDbMlineStyle
  2
Standard
 70
     0
  3

 62
   256
 51
90.0
 52
90.0
 71
     2
 49
0.5
 62
   256
  6
BYLAYER
 49
-0.5
 62
   256
  6
BYLAYER
  0
ACDBPLACEHOLDER
  5
F
102
{ACAD_REACTORS
330
E
102
}
330
E
  0
VISUALSTYLE
  5
2F
102
{ACAD_REACTORS
330
2A
102
}
102
{ACAD_XDICTIONARY
360
1A9
102
}
330
2A
100
AcDbVisualStyle
  2
2dWireframe
 70
     4
 71
     0
 72
     2
 73
     0
 90
        0
 40
-0.6
 41
-30.0
 62
     5
 63
     7
 74
     1
 91
        4
 64
     7
 65
   257
 75
     1
175
     1
 42
1.0
 92
        0
 66
   257
 43
1.0
 76
     1
 77
     6
 78
     2
 67
     7
 79
     5
170
     0
171
     0
290
     0
174
     0
 93
        1
 44
0.0
173
     0
291
     0
 45
0.0
1001
ACAD
1000
AcDbSavedByObjectVersion
1070
     0
  0
VISUALSTYLE
  5
31
102
{ACAD_REACTORS
330
2A
102
}
102
{ACAD_XDICTIONARY
360
1AD
102
}
330
2A
100
AcDbVisualStyle
  2
3D Hidden
 70
     6
 71
     1
 72
     2
 73
     2
 90
        0
 40
-0.6
 41
-30.0
 62
     5
 63
     7
 74
     2
 91
        2
 64
     7
 65
   257
 75
     2
175
     1
 42
40.0
 92
        0
 66
   257
 43
1.0
 76
     1
 77
     6
 78
     2
 67
     7
 79
     3
170
     0
171
     0
290
     0
174
     0
 93
        1
 44
0.0
173
     0
291
     0
 45
0.0
1001
ACAD
1000
AcDbSavedByObjectVersion
1070
     0
  0
VISUALSTYLE
  5
30
102
{ACAD_REACTORS
330
2A
102
}
102
{ACAD_XDICTIONARY
360
1AB
102
}
330
2A
100
AcDbVisualStyle
  2
3dWireframe
 70
     5
 71
     0
 72
     2
 73
     0
 90
        0
 40
-0.6
 41
-30.0
 62
     5
 63
     7
 74
     1
 91
        4
 64
     7
 65
   257
 75
     1
175
     1
 42
1.0
 92
        0
 66
   257
 43
1.0
 76
     1
 77
     6
 78
     2
 67
     7
 79
     5
170
     0
171
     0
290
     0
174
     0
 93
        1
 44
0.0
173
     0
291
     0
 45
0.0
1001
ACAD
1000
AcDbSavedByObjectVersion
1070
     0
  0
VISUALSTYLE
  5
32
102
{ACAD_REACTORS
330
2A
102
}
102
{ACAD_XDICTIONARY
360
1AF
102
}
330
2A
100
AcDbVisualStyle
  2
Basic
 70
     7
 71
     1
 72
     0
 73
     1
 90
        0
 40
-0.6
 41
-30.0
 62
     5
 63
     7
 74
     0
 91
        4
 64
     7
 65
   257
 75
     1
175
     1
 42
1.0
 92
        8
 66
     7
 43
1.0
 76
     1
 77
     6
 78
     2
 67
     7
 79
     5
170
     0
171
     0
290
     0
174
     0
 93
        1
 44
0.0
173
     0
291
     1
 45
0.0
1001
ACAD
1000
AcDbSavedByObjectVersion
1070
     0
  0
VISUALSTYLE
  5
36
102
{ACAD_REACTORS
330
2A
102
}
102
{ACAD_XDICTIONARY
360
1B7
102
}
330
2A
100
AcDbVisualStyle
  2
Brighten
 70
    12
 71
     2
 72
     2
 73
     0
 90
        0
 40
-0.6
 41
-30.0
 62
     5
 63
     7
 74
     1
 91
        4
 64
     7
 65
   257
 75
     1
175
     1
 42
1.0
 92
        8
 66
     7
 43
1.0
 76
     1
 77
     6
 78
     2
 67
     7
 79
     5
170
     0
171
     0
290
     0
174
     0
 93
        1
 44
50.0
173
     0
291
     1
 45
0.0
1001
ACAD
1000
AcDbSavedByObjectVersion
1070
     0
  0
VISUALSTYLE
  5
3A
102
{ACAD_REACTORS
330
2A
102
}
102
{ACAD_XDICTIONARY
360
1BF
102
}
330
2A
100
AcDbVisualStyle
  2
ColorChange
 70
    16
 71
     2
 72
     2
 73
     3
 90
        0
 40
-0.6
 41
-30.0
 62
     5
 63
     8
 74
     1
 91
        4
 64
     7
 65
   257
 75
     1
175
     1
 42
1.0
 92
        8
 66
     8
 43
1.0
 76
     1
 77
     6
 78
     2
 67
     7
 79
     5
170
     0
171
     0
290
     0
174
     0
 93
        1
 44
0.0
173
     0
291
     1
 45
0.0
1001
ACAD
1000
AcDbSavedByObjectVersion
1070
     0
  0
VISUALSTYLE
  5
34
102
{ACAD_REACTORS
330
2A
102
}
102
{ACAD_XDICTIONARY
360
1B3
102
}
330
2A
100
AcDbVisualStyle
  2
Conceptual
 70
     9
 71
     3
 72
     2
 73
     0
 90
        0
 40
-0.6
 41
-30.0
 62
     5
 63
     7
 74
     2
 91
        2
 64
     7
 65
   257
 75
     1
175
     1
 42
40.0
 92
        8
 66
     7
 43
1.0
 76
     1
 77
     6
 78
     2
 67
     7
 79
     3
170
     0
171
     0
290
     0
174
     0
 93
        1
 44
0.0
173
     0
291
     0
 45
0.0
1001
ACAD
1000
AcDbSavedByObjectVersion
1070
     0
  0
VISUALSTYLE
  5
35
102
{ACAD_REACTORS
330
2A
102
}
102
{ACAD_XDICTIONARY
360
1B5
102
}
330
2A
100
AcDbVisualStyle
  2
Dim
 70
    11
 71
     2
 72
     2
 73
     0
 90
        0
 40
-0.6
 41
-30.0
 62
     5
 63
     7
 74
     1
 91
        4
 64
     7
 65
   257
 75
     1
175
     1
 42
1.0
 92
        8
 66
     7
 43
1.0
 76
     1
 77
     6
 78
     2
 67
     7
 79
     5
170
     0
171
     0
290
     0
174
     0
 93
        1
 44
-50.0
173
     0
291
     1
 45
0.0
1001
ACAD
1000
AcDbSavedByObjectVersion
1070
     0
  0
VISUALSTYLE
  5
39
102
{ACAD_REACTORS
330
2A
102
}
102
{ACAD_XDICTIONARY
360
1BD
102
}
330
2A
100
AcDbVisualStyle
  2
Facepattern
 70
    15
 71
     2
 72
     2
 73
     0
 90
        0
 40
-0.6
 41
-30.0
 62
     5
 63
     7
 74
     1
 91
        4
 64
     7
 65
   257
 75
     1
175
     1
 42
1.0
 92
        8
 66
     7
 43
1.0
 76
     1
 77
     6
 78
     2
 67
     7
 79
     5
170
     0
171
     0
290
     0
174
     0
 93
        1
 44
0.0
173
     0
291
     1
 45
0.0
1001
ACAD
1000
AcDbSavedByObjectVersion
1070
     0
  0
VISUALSTYLE
  5
2B
102
{ACAD_REACTORS
330
2A
102
}
102
{ACAD_XDICTIONARY
360
1A1
102
}
330
2A
100
AcDbVisualStyle
  2
Flat
 70
     0
 71
     2
 72
     1
 73
     1
 90
        2
 40
-0.6
 41
30.0
 62
     5
 63
     7
 74
     0
 91
        4
 64
     7
 65
   257
 75
     1
175
     1
 42
1.0
 92
        8
 66
     7
 43
1.0
 76
     1
 77
     6
 78
     2
 67
     7
 79
     5
170
     0
171
     0
290
     0
174
     0
 93
       13
 44
0.0
173
     0
291
     1
 45
0.0
1001
ACAD
1000
AcDbSavedByObjectVersion
1070
     0
  0
VISUALSTYLE
  5
2C
102
{ACAD_REACTORS
330
2A
102
}
102
{ACAD_XDICTIONARY
360
1A3
102
}
330
2A
100
AcDbVisualStyle
  2
FlatWithEdges
 70
     1
 71
     2
 72
     1
 73
     1
 90
        2
 40
-0.6
 41
30.0
 62
     5
 63
     7
 74
     1
 91
        4
 64
     7
 65
   257
 75
     1
175
     1
 42
1.0
 92
        0
 66
   257
 43
1.0
 76
     1
 77
     6
 78
     2
 67
     7
 79
     5
170
     0
171
     0
290
     0
174
     0
 93
       13
 44
0.0
173
     0
291
     1
 45
0.0
1001
ACAD
1000
AcDbSavedByObjectVersion
1070
     0
  0
VISUALSTYLE
  5
2D
102
{ACAD_REACTORS
330
2A
102
}
102
{ACAD_XDICTIONARY
360
1A5
102
}
330
2A
100
AcDbVisualStyle
  2
Gouraud
 70
     2
 71
     2
 72
     2
 73
     1
 90
        2
 40
-0.6
 41
30.0
 62
     5
 63
     7
 74
     0
 91
        4
 64
     7
 65
   257
 75
     1
175
     1
 42
1.0
 92
        0
 66
     7
 43
1.0
 76
     1
 77
     6
 78
     2
 67
     7
 79
     5
170
     0
171
     0
290
     0
174
     0
 93
       13
 44
0.0
173
     0
291
     1
 45
0.0
1001
ACAD
1000
AcDbSavedByObjectVersion
1070
     0
  0
VISUALSTYLE
  5
2E
102
{ACAD_REACTORS
330
2A
102
}
102
{ACAD_XDICTIONARY
360
1A7
102
}
330
2A
100
AcDbVisualStyle
  2
GouraudWithEdges
 70
     3
 71
     2
 72
     2
 73
     1
 90
        2
 40
-0.6
 41
30.0
 62
     5
 63
     7
 74
     1
 91
        4
 64
     7
 65
   257
 75
     1
175
     1
 42
1.0
 92
        0
 66
   257
 43
1.0
 76
     1
 77
     6
 78
     2
 67
     7
 79
     5
170
     0
171
     0
290
     0
174
     0
 93
       13
 44
0.0
173
     0
291
     1
 45
0.0
1001
ACAD
1000
AcDbSavedByObjectVersion
1070
     0
  0
VISUALSTYLE
  5
38
102
{ACAD_REACTORS
330
2A
102
}
102
{ACAD_XDICTIONARY
360
1BB
102
}
330
2A
100
AcDbVisualStyle
  2
Linepattern
 70
    14
 71
     2
 72
     2
 73
     0
 90
        0
 40
-0.6
 41
-30.0
 62
     5
 63
     7
 74
     1
 91
        4
 64
     7
 65
   257
 75
     7
175
     7
 42
1.0
 92
        8
 66
     7
 43
1.0
 76
     1
 77
     6
 78
     2
 67
     7
 79
     5
170
     0
171
     0
290
     0
174
     0
 93
        1
 44
0.0
173
     0
291
     1
 45
0.0
1001
ACAD
1000
AcDbSavedByObjectVersion
1070
     0
  0
VISUALSTYLE
  5
33
102
{ACAD_REACTORS
330
2A
102
}
102
{ACAD_XDICTIONARY
360
1B1
102
}
330
2A
100
AcDbVisualStyle
  2
Realistic
 70
     8
 71
     2
 72
     2
 73
     0
 90
        0
 40
-0.6
 41
-30.0
 62
     5
 63
     7
 74
     1
 91
        0
 64
     7
 65
   257
 75
     1
175
     1
 42
1.0
 92
        8
 66
     8
 43
1.0
 76
     1
 77
     6
 78
     2
 67
     7
 79
     5
170
     0
171
     0
290
     0
174
     0
 93
       13
 44
0.0
173
     0
291
     0
 45
0.0
1001
ACAD
1000
AcDbSavedByObjectVersion
1070
     0
  0
VISUALSTYLE
  5
37
102
{ACAD_REACTORS
330
2A
102
}
102
{ACAD_XDICTIONARY
360
1B9
102
}
330
2A
100
AcDbVisualStyle
  2
Thicken
 70
    13
 71
     2
 72
     2
 73
     0
 90
        0
 40
-0.6
 41
-30.0
 62
     5
 63
     7
 74
     1
 91
        4
 64
     7
 65
   257
 75
     1
175
     1
 42
1.0
 92
       12
 66
     7
 43
1.0
 76
     1
 77
     6
 78
     2
 67
     7
 79
     5
170
     0
171
     0
290
     0
174
     0
 93
        1
 44
0.0
173
     0
291
     1
 45
0.0
1001
ACAD
1000
AcDbSavedByObjectVersion
1070
     0
  0
DICTIONARYVAR
  5
19F
102
{ACAD_REACTORS
330
19C
102
}
330
19C
100
DictionaryVariables
280
     0
  1
2
  0
DICTIONARYVAR
  5
1A0
102
{ACAD_REACTORS
330
19C
102
}
330
19C
100
DictionaryVariables
280
     0
  1
1
  0
DICTIONARY
  5
1C3
330
3D
100
AcDbDictionary
280
     1
281
     1
  3
ACAD_XREC_ROUNDTRIP
360
1C4
  0
DICTIONARY
  5
1C1
330
3C
100
AcDbDictionary
280
     1
281
     1
  3
ACAD_XREC_ROUNDTRIP
360
1C2
  0
DICTIONARY
  5
1C5
330
3E
100
AcDbDictionary
280
     1
281
     1
  3
ACAD_XREC_ROUNDTRIP
360
1C6
  0
DICTIONARY
  5
1A9
330
2F
100
AcDbDictionary
280
     1
281
     1
  3
ACAD_XREC_ROUNDTRIP
360
1AA
  0
DICTIONARY
  5
1AD
330
31
100
AcDbDictionary
280
     1
281
     1
  3
ACAD_XREC_ROUNDTRIP
360
1AE
  0
DICTIONARY
  5
1AB
330
30
100
AcDbDictionary
280
     1
281
     1
  3
ACAD_XREC_ROUNDTRIP
360
1AC
  0
DICTIONARY
  5
1AF
330
32
100
AcDbDictionary
280
     1
281
     1
  3
ACAD_XREC_ROUNDTRIP
360
1B0
  0
DICTIONARY
  5
1B7
330
36
100
AcDbDictionary
280
     1
281
     1
  3
ACAD_XREC_ROUNDTRIP
360
1B8
  0
DICTIONARY
  5
1BF
330
3A
100
AcDbDictionary
280
     1
281
     1
  3
ACAD_XREC_ROUNDTRIP
360
1C0
  0
DICTIONARY
  5
1B3
330
34
100
AcDbDictionary
280
     1
281
     1
  3
ACAD_XREC_ROUNDTRIP
360
1B4
  0
DICTIONARY
  5
1B5
330
35
100
AcDbDictionary
280
     1
281
     1
  3
ACAD_XREC_ROUNDTRIP
360
1B6
  0
DICTIONARY
  5
1BD
330
39
100
AcDbDictionary
280
     1
281
     1
  3
ACAD_XREC_ROUNDTRIP
360
1BE
  0
DICTIONARY
  5
1A1
330
2B
100
AcDbDictionary
280
     1
281
     1
  3
ACAD_XREC_ROUNDTRIP
360
1A2
  0
DICTIONARY
  5
1A3
330
2C
100
AcDbDictionary
280
     1
281
     1
  3
ACAD_XREC_ROUNDTRIP
360
1A4
  0
DICTIONARY
  5
1A5
330
2D
100
AcDbDictionary
280
     1
281
     1
  3
ACAD_XREC_ROUNDTRIP
360
1A6
  0
DICTIONARY
  5
1A7
330
2E
100
AcDbDictionary
280
     1
281
     1
  3
ACAD_XREC_ROUNDTRIP
360
1A8
  0
DICTIONARY
  5
1BB
330
38
100
AcDbDictionary
280
     1
281
     1
  3
ACAD_XREC_ROUNDTRIP
360
1BC
  0
DICTIONARY
  5
1B1
330
33
100
AcDbDictionary
280
     1
281
     1
  3
ACAD_XREC_ROUNDTRIP
360
1B2
  0
DICTIONARY
  5
1B9
330
37
100
AcDbDictionary
280
     1
281
     1
  3
ACAD_XREC_ROUNDTRIP
360
1BA
  0
XRECORD
  5
1C4
102
{ACAD_REACTORS
330
1C3
102
}
330
1C3
100
AcDbXrecord
280
     1
102
MATERIAL
148
0.0
149
0.0
149
0.0
 93
        0
 94
      127
282
     0
 72
     1
 77
     1
171
     1
175
     1
179
     1
273
     0
  0
XRECORD
  5
1C2
102
{ACAD_REACTORS
330
1C1
102
}
330
1C1
100
AcDbXrecord
280
     1
102
MATERIAL
148
0.0
149
0.0
149
0.0
 93
        0
 94
      127
282
     0
 72
     1
 77
     1
171
     1
175
     1
179
     1
273
     0
  0
XRECORD
  5
1C6
102
{ACAD_REACTORS
330
1C5
102
}
330
1C5
100
AcDbXrecord
280
     1
102
MATERIAL
148
0.0
149
0.0
149
0.0
 93
        0
 94
      127
282
     0
 72
     1
 77
     1
171
     1
175
     1
179
     1
273
     0
  0
XRECORD
  5
1AA
102
{ACAD_REACTORS
330
1A9
102
}
330
1A9
100
AcDbXrecord
280
     1
102
RTVSPropertyOp0
 70
     1
102
RTVSPropertyOp1
 70
     1
102
RTVSPropertyOp2
 70
     1
102
RTVSPropertyOp3
 70
     1
102
RTVSPropertyOp4
 70
     1
102
RTVSPropertyOp5
 70
     1
102
RTVSPropertyOp6
 70
     1
102
RTVSPropertyOp7
 70
     1
102
RTVSPropertyOp8
 70
     1
102
RTVSPropertyOp9
 70
     1
102
RTVSPropertyOp10
 70
     1
102
RTVSPropertyOp11
 70
     1
102
RTVSPropertyOp12
 70
     1
102
RTVSPropertyOp13
 70
     1
102
RTVSPropertyOp14
 70
     1
102
RTVSPropertyOp15
 70
     1
102
RTVSPropertyOp16
 70
     1
102
RTVSPropertyOp17
 70
     1
102
RTVSPropertyOp18
 70
     1
102
RTVSPropertyOp19
 70
     1
102
RTVSPropertyOp20
 70
     1
102
RTVSPropertyOp21
 70
     1
102
RTVSPropertyOp22
 70
     1
102
RTVSPropertyOp23
 70
     1
102
RTVSPropertyOp24
 70
     1
102
RTVSPropertyOp25
 70
     1
102
RTVSPropertyOp26
 70
     1
102
RTVSPropertyOp27
 70
     1
102
RTVSPropertyOp28
 70
     1
102
RTVSPropertyOp29
 70
     1
102
RTVSPropertyOp30
 70
     1
102
RTVSPropertyOp31
 70
     1
102
RTVSPropertyOp32
 70
     1
  0
XRECORD
  5
1AE
102
{ACAD_REACTORS
330
1AD
102
}
330
1AD
100
AcDbXrecord
280
     1
102
RTVSPropertyOp0
 70
     1
102
RTVSPropertyOp1
 70
     1
102
RTVSPropertyOp2
 70
     1
102
RTVSPropertyOp3
 70
     1
102
RTVSPropertyOp4
 70
     1
102
RTVSPropertyOp5
 70
     1
102
RTVSPropertyOp6
 70
     1
102
RTVSPropertyOp7
 70
     1
102
RTVSPropertyOp8
 70
     1
102
RTVSPropertyOp9
 70
     1
102
RTVSPropertyOp10
 70
     1
102
RTVSPropertyOp11
 70
     1
102
RTVSPropertyOp12
 70
     1
102
RTVSPropertyOp13
 70
     1
102
RTVSPropertyOp14
 70
     1
102
RTVSPropertyOp15
 70
     1
102
RTVSPropertyOp16
 70
     1
102
RTVSPropertyOp17
 70
     1
102
RTVSPropertyOp18
 70
     1
102
RTVSPropertyOp19
 70
     1
102
RTVSPropertyOp20
 70
     1
102
RTVSPropertyOp21
 70
     1
102
RTVSPropertyOp22
 70
     1
102
RTVSPropertyOp23
 70
     1
102
RTVSPropertyOp24
 70
     1
102
RTVSPropertyOp25
 70
     1
102
RTVSPropertyOp26
 70
     1
102
RTVSPropertyOp27
 70
     1
102
RTVSPropertyOp28
 70
     1
102
RTVSPropertyOp29
 70
     1
102
RTVSPropertyOp30
 70
     1
102
RTVSPropertyOp31
 70
     1
102
RTVSPropertyOp32
 70
     1
  0
XRECORD
  5
1AC
102
{ACAD_REACTORS
330
1AB
102
}
330
1AB
100
AcDbXrecord
280
     1
102
RTVSPropertyOp0
 70
     1
102
RTVSPropertyOp1
 70
     1
102
RTVSPropertyOp2
 70
     1
102
RTVSPropertyOp3
 70
     1
102
RTVSPropertyOp4
 70
     1
102
RTVSPropertyOp5
 70
     1
102
RTVSPropertyOp6
 70
     1
102
RTVSPropertyOp7
 70
     1
102
RTVSPropertyOp8
 70
     1
102
RTVSPropertyOp9
 70
     1
102
RTVSPropertyOp10
 70
     1
102
RTVSPropertyOp11
 70
     1
102
RTVSPropertyOp12
 70
     1
102
RTVSPropertyOp13
 70
     1
102
RTVSPropertyOp14
 70
     1
102
RTVSPropertyOp15
 70
     1
102
RTVSPropertyOp16
 70
     1
102
RTVSPropertyOp17
 70
     1
102
RTVSPropertyOp18
 70
     1
102
RTVSPropertyOp19
 70
     1
102
RTVSPropertyOp20
 70
     1
102
RTVSPropertyOp21
 70
     1
102
RTVSPropertyOp22
 70
     1
102
RTVSPropertyOp23
 70
     1
102
RTVSPropertyOp24
 70
     1
102
RTVSPropertyOp25
 70
     1
102
RTVSPropertyOp26
 70
     1
102
RTVSPropertyOp27
 70
     1
102
RTVSPropertyOp28
 70
     1
102
RTVSPropertyOp29
 70
     1
102
RTVSPropertyOp30
 70
     1
102
RTVSPropertyOp31
 70
     1
102
RTVSPropertyOp32
 70
     1
  0
XRECORD
  5
1B0
102
{ACAD_REACTORS
330
1AF
102
}
330
1AF
100
AcDbXrecord
280
     1
102
RTVSPropertyOp0
 70
     1
102
RTVSPropertyOp1
 70
     1
102
RTVSPropertyOp2
 70
     1
102
RTVSPropertyOp3
 70
     1
102
RTVSPropertyOp4
 70
     1
102
RTVSPropertyOp5
 70
     1
102
RTVSPropertyOp6
 70
     1
102
RTVSPropertyOp7
 70
     1
102
RTVSPropertyOp8
 70
     1
102
RTVSPropertyOp9
 70
     1
102
RTVSPropertyOp10
 70
     1
102
RTVSPropertyOp11
 70
     1
102
RTVSPropertyOp12
 70
     1
102
RTVSPropertyOp13
 70
     1
102
RTVSPropertyOp14
 70
     1
102
RTVSPropertyOp15
 70
     1
102
RTVSPropertyOp16
 70
     1
102
RTVSPropertyOp17
 70
     1
102
RTVSPropertyOp18
 70
     1
102
RTVSPropertyOp19
 70
     1
102
RTVSPropertyOp20
 70
     1
102
RTVSPropertyOp21
 70
     1
102
RTVSPropertyOp22
 70
     1
102
RTVSPropertyOp23
 70
     1
102
RTVSPropertyOp24
 70
     1
102
RTVSPropertyOp25
 70
     1
102
RTVSPropertyOp26
 70
     1
102
RTVSPropertyOp27
 70
     1
102
RTVSPropertyOp28
 70
     1
102
RTVSPropertyOp29
 70
     1
102
RTVSPropertyOp30
 70
     1
102
RTVSPropertyOp31
 70
     1
102
RTVSPropertyOp32
 70
     1
  0
XRECORD
  5
1B8
102
{ACAD_REACTORS
330
1B7
102
}
330
1B7
100
AcDbXrecord
280
     1
102
RTVSPropertyOp0
 70
     1
102
RTVSPropertyOp1
 70
     1
102
RTVSPropertyOp2
 70
     1
102
RTVSPropertyOp3
 70
     1
102
RTVSPropertyOp4
 70
     1
102
RTVSPropertyOp5
 70
     1
102
RTVSPropertyOp6
 70
     1
102
RTVSPropertyOp7
 70
     1
102
RTVSPropertyOp8
 70
     1
102
RTVSPropertyOp9
 70
     1
102
RTVSPropertyOp10
 70
     1
102
RTVSPropertyOp11
 70
     1
102
RTVSPropertyOp12
 70
     1
102
RTVSPropertyOp13
 70
     1
102
RTVSPropertyOp14
 70
     1
102
RTVSPropertyOp15
 70
     1
102
RTVSPropertyOp16
 70
     1
102
RTVSPropertyOp17
 70
     1
102
RTVSPropertyOp18
 70
     1
102
RTVSPropertyOp19
 70
     1
102
RTVSPropertyOp20
 70
     1
102
RTVSPropertyOp21
 70
     1
102
RTVSPropertyOp22
 70
     1
102
RTVSPropertyOp23
 70
     1
102
RTVSPropertyOp24
 70
     1
102
RTVSPropertyOp25
 70
     1
102
RTVSPropertyOp26
 70
     1
102
RTVSPropertyOp27
 70
     1
102
RTVSPropertyOp28
 70
     1
102
RTVSPropertyOp29
 70
     1
102
RTVSPropertyOp30
 70
     1
102
RTVSPropertyOp31
 70
     1
102
RTVSPropertyOp32
 70
     1
  0
XRECORD
  5
1C0
102
{ACAD_REACTORS
330
1BF
102
}
330
1BF
100
AcDbXrecord
280
     1
102
RTVSPropertyOp0
 70
     1
102
RTVSPropertyOp1
 70
     1
102
RTVSPropertyOp2
 70
     1
102
RTVSPropertyOp3
 70
     1
102
RTVSPropertyOp4
 70
     1
102
RTVSPropertyOp5
 70
     1
102
RTVSPropertyOp6
 70
     1
102
RTVSPropertyOp7
 70
     1
102
RTVSPropertyOp8
 70
     1
102
RTVSPropertyOp9
 70
     1
102
RTVSPropertyOp10
 70
     1
102
RTVSPropertyOp11
 70
     1
102
RTVSPropertyOp12
 70
     1
102
RTVSPropertyOp13
 70
     1
102
RTVSPropertyOp14
 70
     1
102
RTVSPropertyOp15
 70
     1
102
RTVSPropertyOp16
 70
     1
102
RTVSPropertyOp17
 70
     1
102
RTVSPropertyOp18
 70
     1
102
RTVSPropertyOp19
 70
     1
102
RTVSPropertyOp20
 70
     1
102
RTVSPropertyOp21
 70
     1
102
RTVSPropertyOp22
 70
     1
102
RTVSPropertyOp23
 70
     1
102
RTVSPropertyOp24
 70
     1
102
RTVSPropertyOp25
 70
     1
102
RTVSPropertyOp26
 70
     1
102
RTVSPropertyOp27
 70
     1
102
RTVSPropertyOp28
 70
     1
102
RTVSPropertyOp29
 70
     1
102
RTVSPropertyOp30
 70
     1
102
RTVSPropertyOp31
 70
     1
102
RTVSPropertyOp32
 70
     1
  0
XRECORD
  5
1B4
102
{ACAD_REACTORS
330
1B3
102
}
330
1B3
100
AcDbXrecord
280
     1
102
RTVSPropertyOp0
 70
     1
102
RTVSPropertyOp1
 70
     1
102
RTVSPropertyOp2
 70
     1
102
RTVSPropertyOp3
 70
     1
102
RTVSPropertyOp4
 70
     1
102
RTVSPropertyOp5
 70
     1
102
RTVSPropertyOp6
 70
     1
102
RTVSPropertyOp7
 70
     1
102
RTVSPropertyOp8
 70
     1
102
RTVSPropertyOp9
 70
     1
102
RTVSPropertyOp10
 70
     1
102
RTVSPropertyOp11
 70
     1
102
RTVSPropertyOp12
 70
     1
102
RTVSPropertyOp13
 70
     1
102
RTVSPropertyOp14
 70
     1
102
RTVSPropertyOp15
 70
     1
102
RTVSPropertyOp16
 70
     1
102
RTVSPropertyOp17
 70
     1
102
RTVSPropertyOp18
 70
     1
102
RTVSPropertyOp19
 70
     1
102
RTVSPropertyOp20
 70
     1
102
RTVSPropertyOp21
 70
     1
102
RTVSPropertyOp22
 70
     1
102
RTVSPropertyOp23
 70
     1
102
RTVSPropertyOp24
 70
     1
102
RTVSPropertyOp25
 70
     1
102
RTVSPropertyOp26
 70
     1
102
RTVSPropertyOp27
 70
     1
102
RTVSPropertyOp28
 70
     1
102
RTVSPropertyOp29
 70
     1
102
RTVSPropertyOp30
 70
     1
102
RTVSPropertyOp31
 70
     1
102
RTVSPropertyOp32
 70
     1
  0
XRECORD
  5
1B6
102
{ACAD_REACTORS
330
1B5
102
}
330
1B5
100
AcDbXrecord
280
     1
102
RTVSPropertyOp0
 70
     1
102
RTVSPropertyOp1
 70
     1
102
RTVSPropertyOp2
 70
     1
102
RTVSPropertyOp3
 70
     1
102
RTVSPropertyOp4
 70
     1
102
RTVSPropertyOp5
 70
     1
102
RTVSPropertyOp6
 70
     1
102
RTVSPropertyOp7
 70
     1
102
RTVSPropertyOp8
 70
     1
102
RTVSPropertyOp9
 70
     1
102
RTVSPropertyOp10
 70
     1
102
RTVSPropertyOp11
 70
     1
102
RTVSPropertyOp12
 70
     1
102
RTVSPropertyOp13
 70
     1
102
RTVSPropertyOp14
 70
     1
102
RTVSPropertyOp15
 70
     1
102
RTVSPropertyOp16
 70
     1
102
RTVSPropertyOp17
 70
     1
102
RTVSPropertyOp18
 70
     1
102
RTVSPropertyOp19
 70
     1
102
RTVSPropertyOp20
 70
     1
102
RTVSPropertyOp21
 70
     1
102
RTVSPropertyOp22
 70
     1
102
RTVSPropertyOp23
 70
     1
102
RTVSPropertyOp24
 70
     1
102
RTVSPropertyOp25
 70
     1
102
RTVSPropertyOp26
 70
     1
102
RTVSPropertyOp27
 70
     1
102
RTVSPropertyOp28
 70
     1
102
RTVSPropertyOp29
 70
     1
102
RTVSPropertyOp30
 70
     1
102
RTVSPropertyOp31
 70
     1
102
RTVSPropertyOp32
 70
     1
  0
XRECORD
  5
1BE
102
{ACAD_REACTORS
330
1BD
102
}
330
1BD
100
AcDbXrecord
280
     1
102
RTVSPropertyOp0
 70
     1
102
RTVSPropertyOp1
 70
     1
102
RTVSPropertyOp2
 70
     1
102
RTVSPropertyOp3
 70
     1
102
RTVSPropertyOp4
 70
     1
102
RTVSPropertyOp5
 70
     1
102
RTVSPropertyOp6
 70
     1
102
RTVSPropertyOp7
 70
     1
102
RTVSPropertyOp8
 70
     1
102
RTVSPropertyOp9
 70
     1
102
RTVSPropertyOp10
 70
     1
102
RTVSPropertyOp11
 70
     1
102
RTVSPropertyOp12
 70
     1
102
RTVSPropertyOp13
 70
     1
102
RTVSPropertyOp14
 70
     1
102
RTVSPropertyOp15
 70
     1
102
RTVSPropertyOp16
 70
     1
102
RTVSPropertyOp17
 70
     1
102
RTVSPropertyOp18
 70
     1
102
RTVSPropertyOp19
 70
     1
102
RTVSPropertyOp20
 70
     1
102
RTVSPropertyOp21
 70
     1
102
RTVSPropertyOp22
 70
     1
102
RTVSPropertyOp23
 70
     1
102
RTVSPropertyOp24
 70
     1
102
RTVSPropertyOp25
 70
     1
102
RTVSPropertyOp26
 70
     1
102
RTVSPropertyOp27
 70
     1
102
RTVSPropertyOp28
 70
     1
102
RTVSPropertyOp29
 70
     1
102
RTVSPropertyOp30
 70
     1
102
RTVSPropertyOp31
 70
     1
102
RTVSPropertyOp32
 70
     1
  0
XRECORD
  5
1A2
102
{ACAD_REACTORS
330
1A1
102
}
330
1A1
100
AcDbXrecord
280
     1
102
RTVSPropertyOp0
 70
     1
102
RTVSPropertyOp1
 70
     1
102
RTVSPropertyOp2
 70
     1
102
RTVSPropertyOp3
 70
     1
102
RTVSPropertyOp4
 70
     1
102
RTVSPropertyOp5
 70
     1
102
RTVSPropertyOp6
 70
     1
102
RTVSPropertyOp7
 70
     1
102
RTVSPropertyOp8
 70
     1
102
RTVSPropertyOp9
 70
     1
102
RTVSPropertyOp10
 70
     1
102
RTVSPropertyOp11
 70
     1
102
RTVSPropertyOp12
 70
     1
102
RTVSPropertyOp13
 70
     1
102
RTVSPropertyOp14
 70
     1
102
RTVSPropertyOp15
 70
     1
102
RTVSPropertyOp16
 70
     1
102
RTVSPropertyOp17
 70
     1
102
RTVSPropertyOp18
 70
     1
102
RTVSPropertyOp19
 70
     1
102
RTVSPropertyOp20
 70
     1
102
RTVSPropertyOp21
 70
     1
102
RTVSPropertyOp22
 70
     1
102
RTVSPropertyOp23
 70
     1
102
RTVSPropertyOp24
 70
     1
102
RTVSPropertyOp25
 70
     1
102
RTVSPropertyOp26
 70
     1
102
RTVSPropertyOp27
 70
     1
102
RTVSPropertyOp28
 70
     1
102
RTVSPropertyOp29
 70
     1
102
RTVSPropertyOp30
 70
     1
102
RTVSPropertyOp31
 70
     1
102
RTVSPropertyOp32
 70
     1
  0
XRECORD
  5
1A4
102
{ACAD_REACTORS
330
1A3
102
}
330
1A3
100
AcDbXrecord
280
     1
102
RTVSPropertyOp0
 70
     1
102
RTVSPropertyOp1
 70
     1
102
RTVSPropertyOp2
 70
     1
102
RTVSPropertyOp3
 70
     1
102
RTVSPropertyOp4
 70
     1
102
RTVSPropertyOp5
 70
     1
102
RTVSPropertyOp6
 70
     1
102
RTVSPropertyOp7
 70
     1
102
RTVSPropertyOp8
 70
     1
102
RTVSPropertyOp9
 70
     1
102
RTVSPropertyOp10
 70
     1
102
RTVSPropertyOp11
 70
     1
102
RTVSPropertyOp12
 70
     1
102
RTVSPropertyOp13
 70
     1
102
RTVSPropertyOp14
 70
     1
102
RTVSPropertyOp15
 70
     1
102
RTVSPropertyOp16
 70
     1
102
RTVSPropertyOp17
 70
     1
102
RTVSPropertyOp18
 70
     1
102
RTVSPropertyOp19
 70
     1
102
RTVSPropertyOp20
 70
     1
102
RTVSPropertyOp21
 70
     1
102
RTVSPropertyOp22
 70
     1
102
RTVSPropertyOp23
 70
     1
102
RTVSPropertyOp24
 70
     1
102
RTVSPropertyOp25
 70
     1
102
RTVSPropertyOp26
 70
     1
102
RTVSPropertyOp27
 70
     1
102
RTVSPropertyOp28
 70
     1
102
RTVSPropertyOp29
 70
     1
102
RTVSPropertyOp30
 70
     1
102
RTVSPropertyOp31
 70
     1
102
RTVSPropertyOp32
 70
     1
  0
XRECORD
  5
1A6
102
{ACAD_REACTORS
330
1A5
102
}
330
1A5
100
AcDbXrecord
280
     1
102
RTVSPropertyOp0
 70
     1
102
RTVSPropertyOp1
 70
     1
102
RTVSPropertyOp2
 70
     1
102
RTVSPropertyOp3
 70
     1
102
RTVSPropertyOp4
 70
     1
102
RTVSPropertyOp5
 70
     1
102
RTVSPropertyOp6
 70
     1
102
RTVSPropertyOp7
 70
     1
102
RTVSPropertyOp8
 70
     1
102
RTVSPropertyOp9
 70
     1
102
RTVSPropertyOp10
 70
     1
102
RTVSPropertyOp11
 70
     1
102
RTVSPropertyOp12
 70
     1
102
RTVSPropertyOp13
 70
     1
102
RTVSPropertyOp14
 70
     1
102
RTVSPropertyOp15
 70
     1
102
RTVSPropertyOp16
 70
     1
102
RTVSPropertyOp17
 70
     1
102
RTVSPropertyOp18
 70
     1
102
RTVSPropertyOp19
 70
     1
102
RTVSPropertyOp20
 70
     1
102
RTVSPropertyOp21
 70
     1
102
RTVSPropertyOp22
 70
     1
102
RTVSPropertyOp23
 70
     1
102
RTVSPropertyOp24
 70
     1
102
RTVSPropertyOp25
 70
     1
102
RTVSPropertyOp26
 70
     1
102
RTVSPropertyOp27
 70
     1
102
RTVSPropertyOp28
 70
     1
102
RTVSPropertyOp29
 70
     1
102
RTVSPropertyOp30
 70
     1
102
RTVSPropertyOp31
 70
     1
102
RTVSPropertyOp32
 70
     1
  0
XRECORD
  5
1A8
102
{ACAD_REACTORS
330
1A7
102
}
330
1A7
100
AcDbXrecord
280
     1
102
RTVSPropertyOp0
 70
     1
102
RTVSPropertyOp1
 70
     1
102
RTVSPropertyOp2
 70
     1
102
RTVSPropertyOp3
 70
     1
102
RTVSPropertyOp4
 70
     1
102
RTVSPropertyOp5
 70
     1
102
RTVSPropertyOp6
 70
     1
102
RTVSPropertyOp7
 70
     1
102
RTVSPropertyOp8
 70
     1
102
RTVSPropertyOp9
 70
     1
102
RTVSPropertyOp10
 70
     1
102
RTVSPropertyOp11
 70
     1
102
RTVSPropertyOp12
 70
     1
102
RTVSPropertyOp13
 70
     1
102
RTVSPropertyOp14
 70
     1
102
RTVSPropertyOp15
 70
     1
102
RTVSPropertyOp16
 70
     1
102
RTVSPropertyOp17
 70
     1
102
RTVSPropertyOp18
 70
     1
102
RTVSPropertyOp19
 70
     1
102
RTVSPropertyOp20
 70
     1
102
RTVSPropertyOp21
 70
     1
102
RTVSPropertyOp22
 70
     1
102
RTVSPropertyOp23
 70
     1
102
RTVSPropertyOp24
 70
     1
102
RTVSPropertyOp25
 70
     1
102
RTVSPropertyOp26
 70
     1
102
RTVSPropertyOp27
 70
     1
102
RTVSPropertyOp28
 70
     1
102
RTVSPropertyOp29
 70
     1
102
RTVSPropertyOp30
 70
     1
102
RTVSPropertyOp31
 70
     1
102
RTVSPropertyOp32
 70
     1
  0
XRECORD
  5
1BC
102
{ACAD_REACTORS
330
1BB
102
}
330
1BB
100
AcDbXrecord
280
     1
102
RTVSPropertyOp0
 70
     1
102
RTVSPropertyOp1
 70
     1
102
RTVSPropertyOp2
 70
     1
102
RTVSPropertyOp3
 70
     1
102
RTVSPropertyOp4
 70
     1
102
RTVSPropertyOp5
 70
     1
102
RTVSPropertyOp6
 70
     1
102
RTVSPropertyOp7
 70
     1
102
RTVSPropertyOp8
 70
     1
102
RTVSPropertyOp9
 70
     1
102
RTVSPropertyOp10
 70
     1
102
RTVSPropertyOp11
 70
     1
102
RTVSPropertyOp12
 70
     1
102
RTVSPropertyOp13
 70
     1
102
RTVSPropertyOp14
 70
     1
102
RTVSPropertyOp15
 70
     1
102
RTVSPropertyOp16
 70
     1
102
RTVSPropertyOp17
 70
     1
102
RTVSPropertyOp18
 70
     1
102
RTVSPropertyOp19
 70
     1
102
RTVSPropertyOp20
 70
     1
102
RTVSPropertyOp21
 70
     1
102
RTVSPropertyOp22
 70
     1
102
RTVSPropertyOp23
 70
     1
102
RTVSPropertyOp24
 70
     1
102
RTVSPropertyOp25
 70
     1
102
RTVSPropertyOp26
 70
     1
102
RTVSPropertyOp27
 70
     1
102
RTVSPropertyOp28
 70
     1
102
RTVSPropertyOp29
 70
     1
102
RTVSPropertyOp30
 70
     1
102
RTVSPropertyOp31
 70
     1
102
RTVSPropertyOp32
 70
     1
  0
XRECORD
  5
1B2
102
{ACAD_REACTORS
330
1B1
102
}
330
1B1
100
AcDbXrecord
280
     1
102
RTVSPropertyOp0
 70
     1
102
RTVSPropertyOp1
 70
     1
102
RTVSPropertyOp2
 70
     1
102
RTVSPropertyOp3
 70
     1
102
RTVSPropertyOp4
 70
     1
102
RTVSPropertyOp5
 70
     1
102
RTVSPropertyOp6
 70
     1
102
RTVSPropertyOp7
 70
     1
102
RTVSPropertyOp8
 70
     1
102
RTVSPropertyOp9
 70
     1
102
RTVSPropertyOp10
 70
     1
102
RTVSPropertyOp11
 70
     1
102
RTVSPropertyOp12
 70
     1
102
RTVSPropertyOp13
 70
     1
102
RTVSPropertyOp14
 70
     1
102
RTVSPropertyOp15
 70
     1
102
RTVSPropertyOp16
 70
     1
102
RTVSPropertyOp17
 70
     1
102
RTVSPropertyOp18
 70
     1
102
RTVSPropertyOp19
 70
     1
102
RTVSPropertyOp20
 70
     1
102
RTVSPropertyOp21
 70
     1
102
RTVSPropertyOp22
 70
     1
102
RTVSPropertyOp23
 70
     1
102
RTVSPropertyOp24
 70
     1
102
RTVSPropertyOp25
 70
     1
102
RTVSPropertyOp26
 70
     1
102
RTVSPropertyOp27
 70
     1
102
RTVSPropertyOp28
 70
     1
102
RTVSPropertyOp29
 70
     1
102
RTVSPropertyOp30
 70
     1
102
RTVSPropertyOp31
 70
     1
102
RTVSPropertyOp32
 70
     1
  0
XRECORD
  5
1BA
102
{ACAD_REACTORS
330
1B9
102
}
330
1B9
100
AcDbXrecord
280
     1
102
RTVSPropertyOp0
 70
     1
102
RTVSPropertyOp1
 70
     1
102
RTVSPropertyOp2
 70
     1
102
RTVSPropertyOp3
 70
     1
102
RTVSPropertyOp4
 70
     1
102
RTVSPropertyOp5
 70
     1
102
RTVSPropertyOp6
 70
     1
102
RTVSPropertyOp7
 70
     1
102
RTVSPropertyOp8
 70
     1
102
RTVSPropertyOp9
 70
     1
102
RTVSPropertyOp10
 70
     1
102
RTVSPropertyOp11
 70
     1
102
RTVSPropertyOp12
 70
     1
102
RTVSPropertyOp13
 70
     1
102
RTVSPropertyOp14
 70
     1
102
RTVSPropertyOp15
 70
     1
102
RTVSPropertyOp16
 70
     1
102
RTVSPropertyOp17
 70
     1
102
RTVSPropertyOp18
 70
     1
102
RTVSPropertyOp19
 70
     1
102
RTVSPropertyOp20
 70
     1
102
RTVSPropertyOp21
 70
     1
102
RTVSPropertyOp22
 70
     1
102
RTVSPropertyOp23
 70
     1
102
RTVSPropertyOp24
 70
     1
102
RTVSPropertyOp25
 70
     1
102
RTVSPropertyOp26
 70
     1
102
RTVSPropertyOp27
 70
     1
102
RTVSPropertyOp28
 70
     1
102
RTVSPropertyOp29
 70
     1
102
RTVSPropertyOp30
 70
     1
102
RTVSPropertyOp31
 70
     1
102
RTVSPropertyOp32
 70
     1
  0
ENDSEC
  0
EOF
